<?xml version="1.0" encoding="UTF-8" standalone="no"?>
<!-- Created with Inkscape (http://www.inkscape.org/) -->

<svg
   xmlns:dc="http://purl.org/dc/elements/1.1/"
   xmlns:cc="http://creativecommons.org/ns#"
   xmlns:rdf="http://www.w3.org/1999/02/22-rdf-syntax-ns#"
   xmlns:svg="http://www.w3.org/2000/svg"
   xmlns="http://www.w3.org/2000/svg"
   xmlns:sodipodi="http://sodipodi.sourceforge.net/DTD/sodipodi-0.dtd"
   xmlns:inkscape="http://www.inkscape.org/namespaces/inkscape"
   width="16000"
   height="1024"
   id="svg6627"
   version="1.1"
   inkscape:version="0.48.2 r9819"
   sodipodi:docname="fluigIcons2.svg">
  <defs
     id="defs6629">
    <font
       horiz-adv-x="1024"
       id="font4779"
       inkscape:label="font 1">
      <font-face
         units-per-em="1024"
         id="font-face4781"
         font-family="FluigIcons" />
      <missing-glyph
         d="M0,0h1000v1024h-1000z"
         id="missing-glyph4783" />
      <glyph
         glyph-name="user"
         id="glyph4785"
         unicode=""
         d="M 510.6875,1024 C 362.01854,1024 241.125,904.13568 241.125,756.75 c 0,-57.49132 18.77985,-110.49319 50.15625,-154.125 -67.56514,-97.78658 -113.375,-229.31733 -113.375,-331.53125 0,-15.78445 1.1605,-30.99385 3.40625,-45.6875 C 221.47943,208.33851 342.74611,163.5 505.53125,163.5 c 167.59747,0 296.37968,46.13345 334.75,61.46875 2.24575,14.82198 3.46875,30.21222 3.46875,46.125 -0.12833,102.21392 -45.8707,233.68051 -113.5,331.53125 31.3764,43.63181 50.25,96.63368 50.25,154.125 C 780.5,904.13568 659.48479,1024 510.6875,1024 z M 343.28125,856.71875 c 0,0 73.63364,-66.73627 141.96875,-79.3125 51.3957,-9.5605 170.8257,-6.41549 202.84375,-8.46875 16.04111,-1.0908 34.43634,-7.43397 48.9375,-13.59375 C 736.19711,632.40472 635.16481,532.5 510.75,532.5 386.01437,532.5 284.5,633.10516 284.5,756.75 c -0.0642,18.86434 3.01015,36.88936 7.4375,54.40625 8.08472,5.06899 20.08447,12.84151 28.875,20.15625 13.92368,11.5496 22.46875,25.40625 22.46875,25.40625 z m -155.625,-658 C 202.09324,145.84727 232.33657,101.24716 277.1875,67.625 336.09044,23.4157 416.87912,0 510.6875,0 c 93.93671,0 174.65623,23.4157 233.6875,67.625 44.78677,33.62216 75.06467,78.0956 89.4375,131.03125 -52.99981,-19.69848 -173.45084,-56.96875 -328.34375,-56.96875 -150.65806,0 -264.68436,36.24198 -317.8125,57.03125 z" />
      <glyph
         glyph-name="adduser"
         id="glyph4788"
         unicode=""
         d="M 363.5,1024 C 214.86023,1024 93.96875,904.13994 93.96875,756.78125 93.96875,699.35054 112.4719,646.14679 143.6875,602.625 76.32368,504.8771 30.75,373.29564 30.75,271.125 c 0,-15.70366 1.08868,-30.91406 3.34375,-45.65625 34.61279,-14.67838 129.09436,-49.72909 258.3125,-59.34375 -39.92998,61.34067 -63.1875,134.72503 -63.1875,213.5 l 0,0.0312 c 0,62.23804 14.48271,121.07182 40.25,173.375 -77.87876,35.44548 -132.1875,113.31113 -132.1875,203.6875 0,18.65215 2.52218,36.53605 6.875,53.90625 8.14042,5.06343 20.68736,13.2866 29.46875,20.59375 13.84511,11.6655 22.4375,25.375 22.4375,25.375 0,0 73.57937,-66.59149 141.96875,-79.21875 51.4064,-9.55027 170.82772,-6.35353 202.8125,-8.46875 4.61503,-0.32049 9.50357,-1.09624 14.375,-2.25 21.72914,3.65357 43.96565,5.71875 66.65625,5.71875 3.58948,0 7.03712,-0.0731 10.5625,-0.21875 C 624.42528,912.33599 507.01194,1024 363.5,1024 z M 632.375,742.625 c -200.43088,0 -363.5,-161.58098 -363.5,-360.28125 0,-198.63617 163.06912,-360.15625 363.5,-360.15625 200.55907,0 363.6891,161.52008 363.625,360.15625 C 996,581.04402 832.86998,742.625 632.375,742.625 z m 0,-84.8125 c 153.31969,0 278,-123.55919 278,-275.46875 0,-151.84546 -124.68031,-275.375 -278,-275.375 -153.25559,0 -277.90625,123.52954 -277.90625,275.375 0,151.90956 124.65066,275.46875 277.90625,275.46875 z m -0.1875,-88.5 c -20.95967,0 -37.875,-16.85921 -37.875,-37.5625 l 0,-113.65625 -112.0625,0 c -20.89558,0 -37.875,-16.79512 -37.875,-37.5625 0,-20.63919 16.97942,-37.5 37.875,-37.5 l 112.0625,0 0,-108.125 c 0,-20.76738 16.91533,-37.5625 37.875,-37.5625 20.89558,0 37.875,16.85921 37.875,37.5625 l 0,108.125 111.96875,0 c 20.95967,0 37.96875,16.86081 37.96875,37.5 0,20.70329 -17.00908,37.5625 -37.96875,37.5625 l -111.96875,0 0,113.65625 c 0,20.76738 -16.97942,37.5625 -37.875,37.5625 z M 39.46875,198.6875 c 14.422,-52.88006 44.63157,-97.47426 89.5,-131.125 C 187.87458,23.3997 268.69666,0 362.46875,0 403.94,0 442.6429,4.8107 478.28125,13.6562 c -68.3282,26.72815 -127.35263,71.84739 -170.875,129.4063 -125.82097,6.73026 -220.892663,37.35743 -267.9375,55.625 z" />
      <glyph
         glyph-name="removeuser"
         id="glyph4791"
         unicode=""
         d="M 358.875,1024 C 210.18652,1024 89.25,904.09549 89.25,756.75 89.25,699.32107 107.79141,646.11384 139,602.5625 71.594554,504.84379 26,373.2266 26,271.03125 c 0,-15.7322 1.074179,-30.94583 3.3125,-45.71875 34.662004,-14.64502 129.19189,-49.68699 258.375,-59.34375 -39.90607,61.58581 -63.25,134.92984 -63.25,213.71875 0,62.22533 14.60233,121.12473 40.375,173.4375 -77.95753,35.42943 -132.28125,113.32327 -132.28125,203.6875 0,18.61004 2.55896,36.5113 6.84375,53.90625 8.12191,5.05221 20.67317,13.24072 29.5625,20.53125 13.81364,11.70322 22.4375,25.375 22.4375,25.375 0,0 73.66798,-66.61875 141.96875,-79.28125 51.48139,-9.52885 170.77108,-6.39103 202.875,-8.4375 4.60455,-0.31976 9.45069,-1.09886 14.375,-2.25 21.67974,3.64527 43.95328,5.6875 66.65625,5.6875 3.51736,0 7.01244,-0.0596 10.59375,-0.1875 C 619.78579,912.33911 502.38337,1024 358.875,1024 z M 636.09375,742.28125 c -201.12915,0 -364.78125,-162.099 -364.78125,-361.4375 0,-199.3385 163.58814,-361.46875 364.78125,-361.46875 201.12915,0 364.78125,162.13025 364.78125,361.46875 0,199.3385 -163.6521,361.4375 -364.78125,361.4375 z m 0,-85.125 C 789.8984,657.15625 915,533.24145 915,380.84375 915,228.57395 789.83444,104.5625 636.09375,104.5625 c -153.74069,0 -278.875,124.01145 -278.875,276.28125 0,152.3977 125.13431,276.3125 278.875,276.3125 z m -138.5625,-237.125 c -20.91232,0 -37.875,-16.80789 -37.875,-37.65625 0,-20.72046 16.89873,-37.53125 37.875,-37.53125 l 300.1875,0 c 20.91232,0 37.90625,16.81079 37.90625,37.53125 0,20.78441 -16.99393,37.65625 -37.90625,37.65625 l -300.1875,0 z M 34.75,198.75 C 49.267112,145.86167 79.388373,101.29647 124.21875,67.59375 183.18253,23.4029 263.96361,0 357.78125,0 399.28612,0 437.97247,4.7982 473.59375,13.6875 405.22902,40.41945 346.20613,85.56962 302.71875,143.0625 176.86114,149.77746 81.754746,180.39577 34.75,198.75 z" />
      <glyph
         glyph-name="comment"
         id="glyph4794"
         unicode=""
         d="m 512.03125,1024 c -262.53046,0 -476.0625,-211.55931 -476.0625,-471.65625 0,-90.7108 25.90194,-178.42238 75,-254.28125 C 55.34096,83.03259 53.70267,65.10982 53.0625,59.15625 51.08379,38.09491 59.05189,24.46325 66.09375,16.7812 75.88833,6.1547 90.50627,0 106.1875,0 c 8.25819,0 16.45662,1.6726 23.5625,4.9375 10.69082,4.6729 150.36404,70.40051 220.84375,103.625 51.8537,-18.56461 106.06439,-27.96875 161.375,-27.96875 C 774.43227,80.59375 988,292.24653 988,552.34375 988,812.44069 774.49475,1024 512.03125,1024 z m 0.0625,-79.96875 c 218.35589,0 396.03125,-175.63513 396.03125,-391.625 0,-215.99016 -177.73785,-391.71875 -396.09375,-391.71875 -45.96415,0 -91.22457,7.85347 -134.5,23.28125 L 346.4375,195.125 c 0,0 -153.58045,-72.35742 -202.9375,-95.53125 7.87409,32.90441 21.50579,87.72518 45,178.5 l 8.84375,34.0625 -19.09375,29.5 c -40.71476,62.79972 -62.21875,135.72305 -62.21875,210.75 0,215.98987 177.6397,391.625 396.0625,391.625 z" />
      <glyph
         glyph-name="discuss"
         id="glyph4773"
         unicode=""
         d="M 673.75,996.59375 C 591.88475,996.25432 515.23167,965.31096 456,913.6875 661.33644,882.46038 819.28125,706.77463 819.28125,494.78125 c 0,-53.31606 -10.40918,-104.19851 -28.625,-151.28125 7.98833,3.02588 16.22249,5.55644 23.96875,9.1875 145.78706,-59.54938 158.3223,-62.3462 162.4375,-63.375 14.58476,-3.44951 24.8545,0.91605 30.9063,5.03125 8.5329,5.87021 14.0535,15.54828 15.6874,26.5625 0.7263,5.87021 0.2923,11.79746 -1.2812,17.0625 -2.1181,7.92781 -35.10566,112.50588 -51.6875,165.15625 18.03426,34.6161 29.9205,71.83714 35.125,110.75 25.0543,184.45785 -103.24061,354.87526 -286.125,379.6875 -15.44146,2.09921 -30.77727,3.09411 -45.9375,3.03125 z M 390.875,878.78125 C 175.31084,878.78125 0,705.06876 0,491.5625 0,417.06532 21.28919,345.05397 61.53125,282.78125 15.90305,106.25125 14.63644,91.55824 14.03125,86.65625 12.46327,69.34823 19.06324,58.20015 24.8125,51.90625 32.85871,43.19155 44.82831,38.125 57.71875,38.125 c 6.77808,0 13.56324,1.3372 19.3125,4 8.77518,3.8124 123.52206,57.76921 181.375,85.0625 42.5445,-15.25038 87.01936,-23 132.46875,-23 215.44313,0 390.84375,173.77698 390.84375,387.34375 0,213.56678 -175.40062,387.25 -390.84375,387.25 z m 0,-75.65625 c 173.8064,0 315.1875,-139.81346 315.1875,-311.5625 0,-171.87008 -141.3811,-311.65625 -315.1875,-311.65625 -36.61369,0 -72.6235,6.24797 -106.9375,18.59375 l -29.53125,10.59375 c 0,0 -112.19818,-52.91912 -151.65625,-71.4375 6.71755,27.53537 16.89964,67.78995 31.96875,126.25 l 8.34375,32.125 -18.03125,27.84375 c -32.31688,49.98774 -49.375,107.95656 -49.375,167.6875 0,171.74904 141.41236,311.5625 315.21875,311.5625 z" />
      <glyph
         glyph-name="users"
         id="glyph4776"
         unicode=""
         d="m 666.09375,1024 c -148.68129,0 -269.625,-119.88154 -269.625,-267.21875 0,-57.47559 18.79429,-110.47427 50.15625,-154.125 C 379.10078,504.92214 333.21875,373.27538 333.21875,271.125 c 0,-15.80899 1.16611,-31.03058 3.40625,-45.6875 40.25852,-17.02506 161.39408,-61.84375 324.15625,-61.84375 167.62648,0 296.41311,46.07804 334.6875,61.375 2.30414,14.91293 3.46875,30.28175 3.46875,46.21875 0.064,102.08638 -45.78828,233.67214 -113.3125,331.40625 31.29796,43.65073 50.1875,96.6479 50.1875,154.1875 C 935.8125,904.18246 814.83905,1024 666.09375,1024 z M 315.3125,908.84375 c -125.76669,0 -228.125,-101.50772 -228.125,-226.1875 0,-48.57883 15.81749,-93.63377 42.1875,-130.5 C 72.60267,469.78283 34,358.80566 34,272.65625 34,199.56354 62.93358,139.27655 117.59375,98.25 c 49.60379,-37.25026 117.58197,-56.96875 196.5,-56.96875 33.60256,0 65.00428,3.7738 94.0625,10.75 -11.39287,6.46455 -22.38723,13.19771 -32.5,20.75 -64.83695,48.64313 -99.03125,120.1838 -99.03125,206.78125 0,102.02233 45.5716,233.54996 112.96875,331.15625 -31.3624,43.71476 -49.96875,97.11522 -49.96875,154.71875 0,49.21918 13.69921,95.22531 37.125,134.84375 -19.58549,5.44042 -40.05987,8.5625 -61.4375,8.5625 z M 498.75,856.6875 c 0,0 73.58273,-66.67096 141.875,-79.34375 51.45922,-9.47259 170.77775,-6.29261 202.84375,-8.46875 16.001,-1.08807 34.43984,-7.41812 48.96875,-13.5625 -0.83205,-122.88768 -101.92298,-222.75 -226.21875,-222.75 -124.8078,0 -226.3125,100.69103 -226.3125,224.21875 -0.12801,18.88118 2.95722,36.93316 7.4375,54.40625 8.12851,5.05632 20.16895,12.79729 28.9375,20.09375 C 490.17012,842.99398 498.75,856.6875 498.75,856.6875 z M 343.0625,198.71875 c 14.4649,-52.93131 44.6957,-97.4589 89.5625,-131.125 C 491.57268,23.431 572.32639,0 666.15625,0 c 93.89387,0 174.55081,23.431 233.5625,67.59375 44.7388,33.6661 75.06785,78.13119 89.46875,131.0625 -52.8673,-19.71323 -173.39007,-56.9375 -328.34375,-56.9375 -150.60141,0 -264.72193,36.1987 -317.78125,57 z" />
      <glyph
         glyph-name="addusers"
         id="glyph4779"
         unicode=""
         d="m 513.46875,928.34375 c -119.98499,0 -217.625,-96.78223 -217.625,-215.625 0,-46.36374 14.98608,-89.20512 40.21875,-124.40625 -54.46311,-78.86508 -91.25,-185.18759 -91.25,-267.53125 0,-12.72017 0.93283,-25.02687 2.75,-36.8125 27.98438,-11.83755 104.24649,-40.22223 208.5,-47.90625 -32.18983,49.5308 -51,108.76355 -51,172.3125 0,50.20575 11.78429,97.74796 32.5,139.90625 -62.82208,28.65933 -106.6875,91.4912 -106.6875,164.4375 0,15.05653 2.02142,29.55444 5.5,43.46875 6.48988,4.10161 16.73084,10.62306 23.84375,16.59375 11.1626,9.44927 18.125,20.53125 18.125,20.53125 0,0 59.37252,-53.75127 114.5625,-64.03125 41.48334,-7.6321 137.85247,-5.13042 163.65625,-6.84375 3.73817,-0.20768 7.68973,-0.89863 11.6875,-1.78125 17.44481,3.01131 35.42257,4.6875 53.75,4.6875 2.85555,0 5.74829,-0.14616 8.5,-0.25 -6.48988,113.13167 -101.25171,203.25 -217.03125,203.25 z m -286.3125,-98.0625 c -101.60564,0 -184.21875,-81.95391 -184.21875,-182.625 0,-39.1989 12.723759,-75.63595 34.0625,-105.4375 -45.948384,-66.4045 -77,-156.00152 -77,-225.625 0,-59.03199 23.368784,-107.69871 67.5,-140.875 40.02961,-30.11307 94.89962,-45.9375 158.65625,-45.9375 27.15368,0 52.50133,2.99707 75.96875,8.65625 -9.18968,5.13999 -18.11937,10.5923 -26.21875,16.71875 -52.38635,39.30274 -80,96.98183 -80,166.96875 0,82.4475 36.85948,188.62434 91.21875,267.4375 -25.33651,35.25305 -40.3125,78.35551 -40.3125,124.875 0,39.77001 10.96637,76.93468 29.96875,108.96875 -15.83532,4.3612 -32.43979,6.875 -49.625,6.875 z M 730.5,701.40625 c -161.77985,0 -293.4375,-130.42389 -293.4375,-290.75 0,-160.37803 131.65765,-290.75 293.4375,-290.75 161.88369,0 293.5519,130.37197 293.5,290.75 0,160.32611 -131.66823,290.75 -293.5,290.75 z m 0,-68.46875 c 123.77508,0 224.40625,-99.81473 224.40625,-222.34375 0,-122.58094 -100.63117,-222.25 -224.40625,-222.25 -123.67124,0 -224.28125,99.66906 -224.28125,222.25 0,122.52902 100.66193,222.34375 224.28125,222.34375 z m -0.15625,-71.40625 c -16.8737,0 -30.53125,-13.59456 -30.53125,-30.3125 l 0,-91.75 -90.4375,0 c -16.82178,0 -30.46875,-13.64648 -30.46875,-30.3125 0,-16.76986 13.69889,-30.28125 30.46875,-30.28125 l 90.4375,0 0,-87.28125 c 0,-16.71794 13.70947,-30.34375 30.53125,-30.34375 16.92562,0 30.59375,13.62581 30.59375,30.34375 l 0,87.28125 90.375,0 c 16.92562,0 30.59375,13.56331 30.59375,30.28125 0,16.66602 -13.66813,30.3125 -30.59375,30.3125 l -90.375,0 0,91.75 c 0,16.71794 -13.72005,30.3125 -30.59375,30.3125 z M 251.96875,262.375 C 263.59862,219.6456 287.98932,183.65368 324.125,156.5 371.73479,120.83159 436.94765,102 512.59375,102 c 33.53972,0 64.68491,3.84575 93.5,11.0625 -55.13806,21.54642 -102.72578,57.93868 -137.875,104.40625 -101.55372,5.39958 -178.34907,30.05739 -216.25,44.90625 z" />
      <glyph
         glyph-name="removeusers"
         id="glyph4782"
         unicode=""
         d="m 513.4375,924.21875 c -119.89759,0 -217.46875,-96.77357 -217.46875,-215.53125 0,-46.32171 14.91215,-89.27636 40.09375,-124.40625 -54.4047,-78.8609 -91.1875,-185.13712 -91.1875,-267.625 0,-12.64262 0.93651,-24.93641 2.75,-36.75 27.87593,-11.86541 104.18774,-40.15471 208.4375,-47.875 -32.17649,49.53418 -50.96875,108.76798 -50.96875,172.34375 0,50.20776 11.75384,97.72966 32.53125,139.90625 -62.90219,28.60133 -106.75,91.43158 -106.75,164.4375 0,15.02606 2.12221,29.55135 5.59375,43.4375 6.47675,4.09331 16.7033,10.70752 23.75,16.5625 11.19182,9.43015 18.0625,20.53125 18.0625,20.53125 0,0 59.44309,-53.82389 114.625,-64.03125 41.4512,-7.66847 137.82163,-5.10264 163.625,-6.8125 3.73061,-0.25907 7.63532,-0.96291 11.625,-1.84375 17.51313,3.00521 35.4391,4.65625 53.78125,4.65625 2.90158,0 5.62967,-0.16694 8.53125,-0.21875 C 723.992,834.10995 629.24178,924.21875 513.4375,924.21875 z M 227.21875,826.1875 c -101.60725,0 -184.25,-81.90847 -184.25,-182.53125 0,-39.32682 12.69457,-75.64445 34.09375,-105.4375 C 31.103486,471.74139 0,382.09688 0,312.5625 0,253.44273 23.365161,204.90027 67.5625,171.6875 c 40.0004,-30.05212 94.87322,-45.90625 158.65625,-45.90625 27.09872,0 52.54882,3.03977 75.96875,8.6875 -9.22289,5.12959 -18.10532,10.57345 -26.34375,16.6875 -52.28032,39.22319 -79.9375,97.05111 -79.9375,167 0,82.38425 36.8453,188.56591 91.25,267.375 -25.28523,35.28533 -40.375,78.32547 -40.375,124.90625 0,39.63771 11.03608,76.84326 30,108.8125 -15.80327,4.40419 -32.36025,6.9375 -49.5625,6.9375 z m 503.3125,-128.96875 c -161.81511,0 -293.4375,-130.36431 -293.4375,-290.625 0,-160.3125 131.62239,-290.65625 293.4375,-290.65625 161.7633,0 293.41695,130.34375 293.46875,290.65625 0,160.26069 -131.70545,290.625 -293.46875,290.625 z m 0,-68.375 c 123.73182,0 224.3125,-99.7099 224.3125,-222.25 0,-122.64373 -100.58068,-222.28125 -224.3125,-222.28125 -123.73182,0 -224.375,99.68934 -224.375,222.28125 0,122.5401 100.69499,222.25 224.375,222.25 z m -121.3125,-191.1875 c -16.89136,0 -30.5625,-13.52477 -30.5625,-30.3125 0,-16.68411 13.67114,-30.3125 30.5625,-30.3125 l 242.1875,0 c 16.94318,0 30.625,13.57658 30.625,30.3125 0,16.73592 -13.68182,30.3125 -30.625,30.3125 l -242.1875,0 z m -357.25,-179.25 C 263.67871,215.71152 288.03202,179.70235 324.25,152.5 371.76343,116.85197 436.94532,98 512.59375,98 c 33.52366,0 64.7638,3.8916 93.46875,11.09375 -55.13009,21.50281 -102.6933,57.91841 -137.875,104.34375 -101.50362,5.38866 -178.23909,30.04632 -216.21875,44.96875 z" />
      <glyph
         glyph-name="group"
         id="glyph4786"
         unicode=""
         d="m 754.46875,928.5625 c -120.42773,0 -218.3125,-97.01938 -218.3125,-216.40625 0,-46.52653 14.93626,-89.50649 40.28125,-124.84375 C 521.84429,508.15495 484.875,401.57148 484.875,318.875 c 0,-12.75056 0.99099,-25.07167 2.8125,-36.9375 32.42285,-13.84346 130.72688,-50.1875 262.5,-50.1875 135.52023,0 239.91981,37.38466 270.9375,49.875 1.9256,11.91787 2.875,24.39535 2.875,37.25 0,82.69648 -36.79225,189.33199 -91.4375,268.4375 25.29295,35.28522 40.34375,78.36926 40.34375,124.84375 0,119.33482 -98.1659,216.40625 -218.4375,216.40625 z M 436.0625,805.84375 C 333.38147,805.84375 250,723.08813 250,621.5 250,581.84316 262.82916,545.25795 284.375,515.125 237.90051,447.67714 206.5,356.88294 206.5,286.3125 c 0,-10.77292 0.74075,-21.2891 2.25,-31.4375 27.73897,-11.76174 111.32645,-42.625 223.6875,-42.625 5.62065,0 10.85843,0.39591 16.375,0.5 -4.78797,10.92905 -9.10662,22.19655 -12.28125,33.90625 l -5.625,22.9375 c -3.07054,18.99573 -4.09375,33.93887 -4.09375,49.1875 0,46.0061 10.08636,98.14416 27.46875,149.875 -6.037,-0.7286 -11.95279,-1.8125 -18.25,-1.8125 -86.13133,0 -156.1875,69.31603 -156.1875,154.71875 0,12.8026 1.81479,25.23838 4.78125,37.15625 5.51657,3.48689 14.19233,9.10807 20.4375,14.15625 9.57593,7.96259 15.46875,17.53125 15.46875,17.53125 0,0 50.79691,-46.04835 98,-54.6875 17.22627,-3.22667 45.5418,-4.37536 72.65625,-4.84375 -8.43098,26.17768 -13.28125,53.44865 -13.28125,81.34375 0,29.50844 5.97563,57.39552 14.875,83.9375 -18.00691,5.72474 -36.78624,9.6875 -56.71875,9.6875 z m 182.78125,-12.8125 c 0,0 59.64706,-53.91422 115.125,-64.21875 41.53039,-7.75442 138.11391,-5.15758 164.1875,-6.875 12.85465,-0.88473 27.85292,-5.96216 39.71875,-10.90625 -0.67656,-99.55845 -82.6924,-180.375 -183.34375,-180.375 -101.0677,0 -183.25,81.44204 -183.25,181.625 -0.052,15.04046 1.96107,29.50041 5.5,43.5 6.60947,4.16345 16.71385,10.83788 23.84375,16.71875 11.29335,9.4198 18.21875,20.53125 18.21875,20.53125 z m -443,-152.28125 C 97.154586,640.75 33.3125,577.38772 33.3125,499.53125 c 0,-30.39317 9.794045,-58.45536 26.34375,-81.5625 C 24.006728,366.28995 0,296.71857 0,242.59375 0,234.37094 0.51130184,226.30646 1.65625,218.5 l 3.4375,-14.0625 c 7.598292,-27.99919 23.476761,-51.5658 47.3125,-69.3125 31.173816,-23.41939 73.84043,-35.8125 123.4375,-35.8125 23.21122,0 44.67146,2.9624 64.34375,8.21875 C 202.5083,136.88356 175.64647,176.54619 163,222.8125 l -4.84375,19.71875 c -2.81033,17.22627 -3.6875,30.35413 -3.6875,43.78125 0,70.46635 26.43896,157.43077 68.75,229.5625 -16.60175,32.73511 -25.25,68.62236 -25.25,105.625 0,5.77678 1.30241,11.2023 1.71875,16.875 -7.75442,1.30108 -15.67298,2.375 -23.84375,2.375 z m 317,-380.40625 C 504.65753,217.40819 529.12187,181.32275 565.5,154.15625 613.17148,118.3506 678.49628,99.3125 754.53125,99.3125 c 75.98292,0 141.38069,18.98606 189.15625,54.84375 36.32608,27.1665 60.7591,63.23103 72.4687,106.0625 C 973.32478,244.18948 875.73637,214.125 750.3125,214.125 c -122.14515,0 -214.58524,29.35679 -257.46875,46.21875 z M 213.21875,236.5 C 223.15898,199.96575 243.87823,169.25293 275,146.09375 315.64566,115.54445 371.38339,99.375 436.125,99.375 c 33.61984,0 64.53194,4.51698 92.375,13 -0.15613,0.10409 -0.37512,0.15637 -0.53125,0.3125 -30.65338,22.79488 -54.59657,51.97355 -71.71875,85.125 -7.91055,-0.26022 -15.64173,-0.65625 -23.8125,-0.65625 -103.93007,0 -182.6845,24.97985 -219.21875,39.34375 z" />
      <glyph
         glyph-name="star-empty"
         id="glyph4789"
         unicode=""
         d="m 511.90625,996.375 c -9.70141,0 -18.4862,-5.44114 -22.8125,-14.09375 L 344.6875,692.375 21.75,645.90625 c -9.570307,-1.37655 -17.581498,-8.01659 -20.53125,-17.0625 -2.949752,-9.24256 -0.44830477,-19.12335 6.5,-25.875 L 241.34375,377.28125 186.1875,58.5625 c -1.63875,-9.50476 2.32149,-19.147 10.1875,-24.71875 4.4574,-3.1464 9.69045,-4.78125 15,-4.78125 4.0641,0 8.1417,0.97405 11.8125,2.875 L 512,182.375 800.875,31.9375 C 804.61135,29.971 808.65465,29 812.71875,29 c 5.17845,0 10.51135,1.69735 14.96875,4.84375 7.80046,5.57175 11.7325,15.21399 10.09375,24.71875 L 782.5625,377.28125 1016.25,602.96875 c 6.9483,6.75165 9.5153,16.63244 6.5,25.875 -3.0153,9.11146 -10.9297,15.68595 -20.5,17.0625 L 679.28125,692.375 534.875,982.28125 c -4.4574,8.71816 -13.33289,14.09375 -22.96875,14.09375 z m 0,-152 93.9375,-188.46875 L 625,617.4375 667.46875,611.34375 875.78125,581.3125 725.5625,436.25 l -31.28125,-30.125 7.40625,-42.75 35.65625,-205.90625 -187.59375,97.75 -37.90625,19.71875 -37.875,-19.71875 -187.65625,-97.75 35.59375,205.96875 7.40625,42.75 -31.21875,30.15625 -150.1875,145.0625 208.40625,30 42.46875,6.09375 19.125,38.5 94,188.375 z" />
      <glyph
         glyph-name="star"
         id="glyph4792"
         unicode=""
         d="m 512,997.25 c -9.6858,0 -18.4572,-5.41678 -22.8125,-14.0625 L 344.75,693.28125 21.8125,646.8125 C 12.25669,645.44739 4.2715,638.72547 1.28125,629.625 -1.709,620.45923 0.63064999,610.54182 7.78125,603.78125 L 241.40625,378.125 186.21875,59.46875 c -1.56604,-9.4905 2.31593,-19.0348 10.1875,-24.625 7.86566,-5.6555 18.20053,-6.4228 26.78125,-1.9375 L 512,183.3125 800.8125,32.90625 c 3.7703,-1.8851 7.80835,-2.875 11.96875,-2.875 5.2004,0 10.48585,1.6272 14.90625,4.8125 7.8656,5.5902 11.8151,15.0695 10.125,24.625 L 782.625,378.125 1016.3125,603.78125 c 6.9556,6.76057 9.4278,16.67798 6.4375,25.84375 -2.9902,9.10047 -10.8455,15.75738 -20.5312,17.1875 L 679.34375,693.28125 534.90625,983.1875 C 530.61585,991.83322 521.7508,997.25 512,997.25 z" />
      <glyph
         glyph-name="thumbs-up"
         id="glyph4795"
         unicode=""
         d="m 525.71875,986.84375 c -42.30392,0 -76.96289,-30.4961 -84.25,-74.21875 l -42.9375,-257.5625 c -4.25619,-26.11751 -23.66011,-49.59805 -34.6875,-52.5 l -50.75,-13.96875 C 296.84285,584.20859 285.5625,568.85116 285.5625,551.375 l 0,-353.84375 c 0,-54.29863 41.91272,-103.24359 95.4375,-111.5625 l 501.5,-36.25 0.34375,0 c 53.58927,0 103.44588,41.3468 113.3125,93.96875 l 14.74995,77.4375 C 1018.0644,259.55966 1024,322.38722 1024,361.53125 l 0,145.9375 c 0,41.72353 -9.8564,97.62089 -22.625,127.15625 -16.44436,38.04774 -67.45104,66.6875 -118.71875,66.6875 l -193.34375,0 5.46875,130.96875 c 2.19258,51.20322 -33.25581,106.59119 -80.71875,125.9375 L 561.5,979.75 c -11.67227,4.64311 -23.72205,7.09375 -35.78125,7.09375 z m 0,-80.59375 c 1.61219,0 3.41111,-0.3824 5.28125,-1.15625 l 52.75,-21.625 c 15.92846,-6.51326 31.33635,-30.62355 30.5625,-47.90625 l -5.5,-130.96875 -3.46875,-83.96875 84.03125,0 193.34375,0 c 22.18376,0 41.33414,-12.19611 44.6875,-18 7.54506,-17.54065 16.0625,-62.00759 16.0625,-95.21875 l 0,-145.9375 c 0,-34.0495 -5.36771,-91.52095 -11.6875,-125.3125 L 917,158.5 c -2.644,-13.92934 -17.92777,-27.05996 -32.4375,-28.15625 l -493.125,35.59375 c -13.41344,3.35336 -25.21875,17.73088 -25.21875,31.53125 l 0,322.125 18.59375,5.15625 c 50.36488,13.47793 85.70295,70.53364 93.3125,117.09375 l 43,257.6875 c 0.32244,2.45053 1.56283,6.71875 4.59375,6.71875 z M 20.6875,587.03125 C 9.3376669,587.03125 0,574.83018 0,560.0625 L 0,116.15625 C 0,101.38857 9.2731792,89.25 20.6875,89.25 l 201.84375,0 c 11.41432,0 20.71875,12.13857 20.71875,26.90625 l 0,443.90625 c 0,14.83217 -9.23994,26.96875 -20.71875,26.96875 l -201.84375,0 z" />
      <glyph
         glyph-name="thumbs-down"
         id="glyph4798"
         unicode=""
         d="m 141.15625,953.21875 c -53.58252,0 -103.447126,-41.35342 -113.3125,-93.96875 l -14.75,-77.4375 C 5.9365181,743.38268 0,680.5766 0,641.4375 L 0,495.53125 C 0,453.81297 9.8580457,397.90664 22.625,368.375 39.06729,330.33206 90.082494,301.71875 141.34375,301.71875 l 193.3125,0 -5.5,-130.96875 c -2.19231,-51.19678 33.29304,-106.59363 80.75,-125.9375 L 462.4375,23.2812 c 11.73528,-4.7714 23.81732,-7.1562 35.875,-7.1562 42.2986,0 76.90131,30.5016 84.1875,74.21875 L 625.4375,347.875 c 4.25565,26.11422 23.69274,49.56717 34.71875,52.46875 l 50.71875,14 c 16.24885,4.38461 27.53125,19.74479 27.53125,37.21875 l 0,353.78125 c 0,54.2918 -41.88821,103.24464 -95.40625,111.5625 l -501.53125,36.3125 -0.3125,0 z m 660.3125,-39.65625 c -11.41288,0 -20.6875,-12.14043 -20.6875,-26.90625 l 0,-443.875 c 0,-14.8303 9.21014,-26.9375 20.6875,-26.9375 l 201.84375,0 c 11.3484,0 20.6875,12.17168 20.6875,26.9375 l 0,443.875 c 0,14.76582 -9.2746,26.90625 -20.6875,26.90625 l -201.84375,0 z m -662.0625,-41.03125 493.1875,-35.59375 c 13.41175,-3.35294 25.21875,-17.73262 25.21875,-31.53125 l 0,-322.0625 L 639.25,478.1875 C 588.89146,464.71127 553.54609,407.648 545.9375,361.09375 l -43,-257.65625 c -0.38688,-2.57918 -1.52998,-6.78125 -4.625,-6.78125 -1.61199,0 -3.44259,0.3825 -5.3125,1.15625 l -52.71875,21.59375 c -15.92645,6.51244 -31.33625,30.65698 -30.5625,47.9375 l 5.46875,130.9375 3.46875,83.96875 -84,0 -193.3125,0 c -22.18097,0 -41.33456,12.16559 -44.6875,17.96875 -7.544109,17.53844 -16.0625,62.04302 -16.0625,95.25 l 0,145.90625 c 0,34.04521 5.368502,91.49396 11.6875,125.28125 l 14.75,77.65625 c 2.64366,13.99207 18.06054,27.18708 32.375,28.21875 z" />
      <glyph
         glyph-name="link"
         id="glyph4801"
         unicode=""
         d="m 714.09375,1016.5312 c -18.65635,0 -35.83885,-6.9967 -48.46875,-19.56245 L 433.03125,764.375 c -12.69401,-12.69401 -19.6875,-29.87651 -19.6875,-48.46875 0.0641,-22.56713 10.24282,-45.58657 27.9375,-63.28125 l 53.9375,-53.90625 76.8125,74 -40.03125,40 L 717.5,898.125 905.59375,710.03125 720.1875,524.59375 682.59375,562.25 605.75,488.1875 660.03125,434.03125 C 677.79004,416.20835 700.86876,406 723.5,406 c 18.65635,0 35.77957,6.93582 48.28125,19.4375 L 1004.375,657.96875 c 12.694,12.6299 19.625,29.87329 19.625,48.59375 0.064,22.50302 -10.1803,45.64746 -27.875,63.40625 l -218.75,218.8125 c -17.69468,17.63055 -40.71412,27.74995 -63.28125,27.74995 z M 733.625,764.625 c -11.73234,0 -22.87947,-4.48288 -31.40625,-12.625 L 260,326.375 c -17.88701,-17.11768 -18.46304,-45.70029 -1.28125,-63.84375 8.46267,-8.71912 20.31727,-13.78125 32.5625,-13.78125 11.86056,0 22.9468,4.54699 31.28125,12.625 l 442.25,425.5625 c 8.71912,8.33445 13.64981,19.60335 13.90625,31.65625 0.25644,12.11701 -4.29216,23.5341 -12.5625,32.125 -8.52678,8.97556 -20.09368,13.90625 -32.53125,13.90625 z M 300.6875,618.46875 c -18.65635,0 -35.83885,-6.99671 -48.46875,-19.5625 L 19.5625,366.375 C 5.2015997,351.88588 -1.643696,332.22563 0.34375,310.8125 c 1.8592237,-20.38735 11.600432,-40.41454 27.5,-56.25 L 246.65625,35.875 C 264.28682,18.1162 287.36876,8 310,8 c 18.65635,0 35.77635,6.9374 48.40625,19.375 L 591.0625,259.96875 c 28.97825,29.04236 25.313,78.15414 -8.28125,111.8125 l -47.875,47.875 L 458.09375,345.8125 492.1875,311.75 306.65625,126.34375 118.625,314.4375 l 185.40625,185.5 43.46875,-43.53125 76.8125,73.90625 -60.40625,60.34375 c -17.63057,17.69468 -40.65162,27.8125 -63.21875,27.8125 z" />
      <glyph
         glyph-name="time"
         id="glyph4804"
         unicode=""
         d="M 512,1018.5312 C 229.62038,1018.5312 0,790.98676 0,511.34375 0,231.57346 229.62038,4 512,4 c 282.31597,0 512,227.57346 512,507.34375 0,279.64301 -229.68403,507.18745 -512,507.18745 z m 0,-84.7187 c 235.22088,0 426.46875,-189.60262 426.46875,-422.46875 0,-232.99341 -191.31151,-422.5 -426.46875,-422.5 -235.0936,0 -426.46875,189.44294 -426.46875,422.5 0,232.86613 191.37515,422.46875 426.46875,422.46875 z m 251.1875,-253 c -9.13499,0.0824 -18.38054,-2.68272 -26.34375,-8.5 L 517.46875,511.6875 432.5,605.46875 c -16.22871,17.88341 -43.83306,19.22757 -61.84375,3.0625 -17.94705,-16.22871 -19.22643,-43.96034 -3.125,-61.84375 l 111.5,-123.21875 c 8.59167,-9.48266 20.50291,-14.375 32.53125,-14.375 9.03717,0 18.07942,2.80233 25.84375,8.59375 l 251.25,183.96875 c 19.5381,14.31945 23.78706,41.80794 9.53125,61.21875 -8.53996,11.60075 -21.64885,17.81713 -35,17.9375 z" />
      <glyph
         glyph-name="calendar"
         id="glyph4807"
         unicode=""
         d="m 149.21875,966.4375 c -4.6368,0 -8.4375,-2.95643 -8.4375,-6.5625 l 0,-58.28125 -69.5625,0 C 31.93513,901.59375 0,862.68811 0,814.96875 l 0,-674.25 C 0,92.93529 31.93513,54.03125 71.21875,54.03125 l 881.625,0 c 39.1548,0 71.15625,38.90404 71.15625,86.6875 l 0,674.25 c 0,47.71936 -31.93895,86.625 -71.09375,86.625 l -93.5625,0 0,58.28125 c 0,3.60607 -3.7988,6.5625 -8.5,6.5625 l -139.625,0 c -4.5724,0 -8.5,-2.95643 -8.5,-6.5625 l 0,-58.28125 -405.46875,0 0,58.28125 c 0,3.60607 -3.70505,6.5625 -8.40625,6.5625 l -139.625,0 z m -25.25,-134.40625 776.59375,0 c 31.7489,0 57.6875,-30.968 57.6875,-69.15625 l 0,-571.53125 C 958.25,153.3487 932.3758,122.25 900.5625,122.25 l -776.59375,0 c -31.81035,0 -57.6875,31.0987 -57.6875,69.09375 l 0,571.53125 c 0,38.12385 25.81275,69.15625 57.6875,69.15625 z m 233.25,-124.90625 c -3.542,0 -6.4375,-4.58286 -6.4375,-10.25 l 0,-99.6875 c 0,-5.66714 2.8955,-10.3125 6.4375,-10.3125 l 106.125,0 c 3.4775,0 6.4375,4.64536 6.4375,10.3125 l 0,99.6875 c 0,5.66714 -2.96,10.25 -6.4375,10.25 l -106.125,0 z m 205.09375,-0.21875 c -3.4776,0 -6.4375,-4.5535 -6.4375,-10.15625 l 0,-99.75 c 0,-5.60274 2.9599,-10.1875 6.4375,-10.1875 l 106.15625,0 c 3.6063,0 6.5,4.58476 6.5,10.1875 l 0,99.75 c 0,5.60275 -2.8937,10.15625 -6.5,10.15625 l -106.15625,0 z m 207.96875,0 c -3.6064,0 -6.53125,-4.5535 -6.53125,-10.15625 l 0,-99.75 c 0,-5.60274 2.92485,-10.1875 6.53125,-10.1875 l 106.125,0 c 3.4775,0 6.4375,4.58476 6.4375,10.1875 l 0,99.75 c 0,5.60275 -2.96,10.15625 -6.4375,10.15625 l -106.125,0 z M 148.5625,530.09375 c -3.5361,0 -6.375,-4.64535 -6.375,-10.3125 l 0,-99.6875 c 0,-5.60274 2.833,-10.3125 6.375,-10.3125 l 106.0625,0 c 3.6063,0 6.5,4.77416 6.5,10.3125 l 0,99.6875 c 0,5.66715 -2.8937,10.3125 -6.5,10.3125 l -106.0625,0 z m 208.65625,0 c -3.542,0 -6.4375,-4.64535 -6.4375,-10.3125 l 0,-99.6875 c 0,-5.60274 2.8955,-10.3125 6.4375,-10.3125 l 106.125,0 c 3.4775,0 6.4375,4.77416 6.4375,10.3125 l 0,99.6875 c 0,5.66715 -2.96,10.3125 -6.4375,10.3125 l -106.125,0 z m 205.8125,-1.1875 c -3.4776,0 -6.5,-4.4891 -6.5,-10.15625 l 0,-99.75 c 0,-5.60274 3.0224,-10.1875 6.5,-10.1875 l 106.125,0 c 3.5361,0 6.375,4.58476 6.375,10.1875 l 0,99.75 c 0,5.66715 -2.8331,10.15625 -6.375,10.15625 l -106.125,0 z m 207.4375,0 c -3.6064,0 -6.5625,-4.4891 -6.5625,-10.15625 l 0,-99.75 c 0,-5.60274 2.9561,-10.1875 6.5625,-10.1875 l 106,0 c 3.5419,0 6.4375,4.58476 6.4375,10.1875 l 0,99.75 c 0,5.66715 -2.8956,10.15625 -6.4375,10.15625 l -106,0 z M 148.5625,352.21875 c -3.5361,0 -6.375,-4.58476 -6.375,-10.1875 l 0,-99.6875 c 0,-5.66714 2.833,-10.3125 6.375,-10.3125 l 106.0625,0 c 3.6063,0 6.5,4.64536 6.5,10.3125 l 0,99.6875 c 0,5.60274 -2.8937,10.1875 -6.5,10.1875 l -106.0625,0 z M 357.21875,349 c -3.542,0 -6.4375,-4.64915 -6.4375,-10.1875 l 0,-99.75 c 0,-5.60274 2.8955,-10.1875 6.4375,-10.1875 l 106.125,0 c 3.4775,0 6.4375,4.58476 6.4375,10.1875 l 0,99.75 c 0,5.53835 -2.96,10.1875 -6.4375,10.1875 l -106.125,0 z m 205.8125,-2.96875 c -3.4776,0 -6.5,-4.64916 -6.5,-10.1875 l 0,-99.8125 c 0,-5.60274 3.0224,-10.15625 6.5,-10.15625 l 106.125,0 c 3.5361,0 6.375,4.55351 6.375,10.15625 l 0,99.8125 c 0,5.53834 -2.8331,10.1875 -6.375,10.1875 l -106.125,0 z" />
      <glyph
         glyph-name="bell"
         id="glyph4810"
         unicode=""
         d="M 508.84375,1023.5 C 432.97159,1023.5 368.40961,974.39628 347.3125,903.75 203.50378,840.84578 111.6875,697.73949 111.6875,533.15625 l 0,-237.9375 c 0,-19.29063 -6.90943,-44.10551 -60.78125,-65.71875 -24.322964,-9.80661 -31.620934,-27.35771 -33.75,-36.90625 -4.129097,-18.19384 3.360754,-34.46357 11.8125,-43.625 7.613023,-8.32271 18.396999,-13.03125 29.6875,-13.03125 l 294.96875,0 C 369.70296,57.15639 432.19767,0 508.96875,0 585.62896,0 648.08424,57.15639 664.1875,135.9375 l 305,0 c 21.48421,0 39.2197,16.82829 40.1875,38.3125 0.9032,17.35511 -9.1507,42.08751 -40.3125,54.28125 -55.93637,21.87131 -63.09375,47.1388 -63.09375,66.6875 l 0,237.9375 c 0,164.58324 -91.81426,307.68752 -235.6875,370.65625 -21.29066,70.58176 -85.8234,119.6875 -161.4375,119.6875 z" />
      <glyph
         glyph-name="paperclip"
         id="glyph4813"
         unicode=""
         d="m 751.34375,974.65625 c -70.60954,0 -141.254,-26.25529 -193.8125,-78.75 L 60.96875,399.28125 C 21.868799,360.1813 0.25513834,308.96176 0,255 -0.25513834,200.7831 21.118799,149.4437 60.21875,110.34375 100.46682,70.09568 152.20692,50 204,50 c 52.17579,0 104.33668,20.33411 145.03125,61.15625 l 480.09375,480.125 c 48.28493,48.4125 48.22243,124.0601 -0.0625,172.28125 -46.56275,46.56275 -125.71979,46.56275 -172.21875,0 L 309.15625,415.875 c -15.49965,-15.56344 -15.49965,-40.84281 0,-56.40625 15.56344,-15.56344 40.90531,-15.56344 56.46875,0 L 713.3125,707.1875 c 16.52021,16.52021 42.97979,16.36267 59.5,-0.0937 16.9667,-16.9667 16.9042,-42.46952 -0.0625,-59.5 L 292.71875,167.5625 c -49.75198,-49.62441 -127.07337,-49.95917 -176.1875,-0.78125 -23.91922,23.91922 -37.066354,55.12097 -36.875,87.90625 0.127569,32.78528 13.481892,64.10818 37.65625,88.21875 l 496.5625,496.6875 c 74.5004,74.43661 200.34335,74.43661 274.84375,0 35.78315,-35.84694 55.5625,-81.6393 55.5625,-129.03125 0,-47.39195 -19.71556,-93.24681 -55.5625,-129.09375 L 531.0625,224.375 C 515.49906,208.81156 515.43656,183.56344 531,168 c 15.56344,-15.62722 40.84281,-15.56215 56.40625,-0.0625 L 945.09375,525 C 995.99385,575.9001 1024,641.804 1024,710.5 c 0,68.696 -28.00487,134.56993 -78.96875,185.40625 -52.49471,52.49471 -123.07796,78.75 -193.6875,78.75 z" />
      <glyph
         glyph-name="flag"
         id="glyph4816"
         unicode=""
         d="M 465.65625,1024 C 349.8606,1023.8547 321.09375,953.90625 321.09375,953.90625 L 325.3125,513.375 c 0,0 92.61155,84.19256 194.75,52.15625 101.99316,-31.81838 210.37335,-162.93274 376.875,-147.75 l 7.28125,356.03125 C 872.40037,826.84313 745.55851,797.19908 686.0625,850.375 626.56649,903.40563 541.7879,1024.2179 465.65625,1024 z m -257.4375,-12.3438 C 166.15747,1011.6562 132,977.59253 132,935.53125 L 132,76.125 C 132,34.06372 166.15747,0 208.21875,0 250.28003,0 284.25,33.99107 284.25,76.125 l 0,859.40625 c 0,42.06128 -33.96997,76.12495 -76.03125,76.12495 z" />
      <glyph
         glyph-name="tag"
         id="glyph4819"
         unicode=""
         d="m 577.03125,1015.0937 -0.125,-0.031 c -46.04706,0 -62.19604,-4.5443 -89.75,-31.78125 L 27.4375,527.46875 C 9.82831,509.92318 0,486.54785 0,461.78125 c 0,-24.89328 9.76496,-48.1411 27.4375,-65.75 L 387.71875,39.125 C 405.20126,21.7061 428.88684,12 453.84375,12 c 25.21029,0 48.76412,9.7061 66.5,27.125 l 466,462.1875 c 21.97975,21.97954 37.31245,45.41654 37.31245,82.28125 l 0,350.34375 c 1.3246,24.63992 -0.6238,39.45697 -17.1562,56.8125 -16.27897,17.1022 -43.94595,24.1875 -69.15625,24.1875 -2.217,0 -4.44015,0.021 -6.59375,-0.094 l -353.71875,0.25 z m -0.125,-79.18745 0.125,0 353.71875,-0.25 c 1.3244,0 5.32605,0.0674 6.65625,0.125 2.6489,0 5.06595,-0.19565 7.15625,-0.4375 l 0,-1.46875 0,-350.34375 c 0,-7.6008 -0.003,-12.15955 -13.875,-26.03125 L 464.875,95.5625 c -3.04044,-2.97709 -6.59728,-4.4375 -11.03125,-4.4375 -3.99057,0 -7.58794,1.36918 -10.375,4.15625 l -360.1875,356.6875 c -2.85041,2.78707 -4.09375,5.88695 -4.09375,9.6875 0,3.7372 1.30346,6.84046 3.90625,9.4375 l 459.75,455.8125 c 5.63748,5.57385 8.22212,7.40541 7.96875,7.46875 1.90027,0.57008 7.78779,1.53125 26.09375,1.53125 z M 723.125,890.6875 c -39.84167,0 -79.65856,-15.0382 -110.03125,-45.09375 -60.74539,-60.30113 -60.74539,-157.85596 0,-218.09375 60.74538,-60.1111 159.28415,-60.1111 220.15625,0 60.682,60.23779 60.682,157.91931 0,218.09375 -30.43605,30.05555 -70.28333,45.09375 -110.125,45.09375 z" />
      <glyph
         glyph-name="certificate"
         id="glyph4822"
         unicode=""
         d="M 509.6875,1024 C 332.21984,1024 188,880.97856 188,705.09375 c 0,-48.38897 11.21009,-94.17605 30.78125,-135.28125 -0.74853,0.38002 -1.59522,0.90039 -2.34375,1.34375 -0.63337,-2.78684 -0.625,-5.52567 -0.625,-8.3125 l 0,-507.4375 c 0,-58.64935 35.97904,-69.16805 80.125,-23.3125 l 123.5,128.3125 c 43.88973,45.79215 81.6582,85.00111 83.875,87.28125 2.10164,2.2168 5.8111,2.09923 8.28125,-0.25 2.15922,-2.47014 39.82865,-41.98492 83.53125,-88.09375 L 719.34375,28.71875 C 762.98305,-17.2 798.75,-6.9934 798.75,51.65625 l 0,511.1875 0,2.65625 c 21.0279,42.24526 32.9375,89.49497 32.9375,139.59375 l -0.3125,0 C 831.375,880.91522 687.09182,1024 509.6875,1024 z m 0,-85.875 c 129.71437,0 235.21875,-104.58451 235.21875,-233.09375 0,-128.50924 -105.50438,-232.9375 -235.21875,-232.9375 -129.58482,0 -235.3125,104.42826 -235.3125,232.9375 0,128.50924 105.72768,233.09375 235.3125,233.09375 z" />
      <glyph
         glyph-name="glass"
         id="glyph4824"
         unicode=""
         d="M 473.03125,1024 C 322.0596,1023.6035 180.16109,1013.9568 173.71875,992.9375 160.03842,948.16263 142,900.98122 142,850.25 142,672.53524 283.43148,456.38679 461.90625,434.15625 L 458.59375,89.3125 c 0,-1.69852 0.0229,-3.16746 0.65625,-4.6875 l -204.1875,0 c -24.44438,0 -44.03125,-18.87941 -44.03125,-42.25 C 211.03125,18.9411 230.68145,0 255.0625,0 L 750.625,0 c 24.38392,0 43.78125,18.9411 43.78125,42.375 0,23.30726 -19.39733,42.1875 -43.78125,42.1875 l -0.3125,0 -204.5,0 c 0,1.52579 0.625,2.97746 0.625,4.6875 L 549.5,433.34375 c 181.64152,19.57047 319.75,237.0381 319.75,416.90625 0,50.73122 -11.7041,105.06947 -31.78125,142.6875 -10.56505,20.087 -193.3363,31.5119 -364.4375,31.0625 z" />
      <glyph
         glyph-name="book"
         id="glyph4828"
         unicode=""
         d="m 227.96875,1024 c -42.39855,0 -76.8125,-29.11777 -76.8125,-64.875 l 0,-16.96875 C 132.57787,933.98304 120,918.25497 120,900.3125 l 0,-783.78125 c 0,-26.2431 26.92809,-47.625 59.8125,-47.625 L 720.96875,0 c 32.8844,0 59.71875,21.3817 59.71875,47.625 l 0,67.5625 26.09375,0 c 42.4624,0 77.03125,29.11777 77.03125,64.875 l 0,779.0625 c 0,35.75723 -34.69385,64.875 -77.15625,64.875 l -578.6875,0 z m -2.8125,-57.71875 563.25,0 c 22.0293,0 40.59375,-13.1701 40.59375,-28.75 l 0,-758.3125 0.0937,0 c 0,-15.64375 -18.5956,-28.78125 -40.625,-28.78125 l -7.90625,0 0,677.21875 c 0,26.17953 -26.83435,47.625 -59.71875,47.625 l -534.5,71.84375 c 0,0 -0.0103,19.15625 38.8125,19.15625 z" />
      <glyph
         glyph-name="th"
         id="glyph4725"
         unicode=""
         d="M 13.90625,1024 C 6.181349,1024 0,1014.2273 0,1002.125 L 0,787.8125 c 0,-12.23109 6.181349,-21.875 13.90625,-21.875 l 227.875,0 c 7.59615,0 13.84375,9.70828 13.84375,21.875 l 0,214.3125 c 0,12.038 -6.2476,21.875 -13.84375,21.875 l -227.875,0 z m 381.34375,0 c -7.7249,0 -13.90625,-9.7727 -13.90625,-21.875 l 0,-214.3125 c 0,-12.23109 6.18135,-21.875 13.90625,-21.875 l 227.96875,0 c 7.53178,0 13.6875,9.70828 13.6875,21.875 l 0,214.3125 c 0,12.038 -6.15572,21.875 -13.6875,21.875 L 395.25,1024 z m 381.28125,0 c -7.85365,0 -13.875,-9.7727 -13.875,-21.875 l 0,-214.3125 c 0,-12.23109 6.02135,-21.875 13.875,-21.875 l 228.03125,0 c 7.5318,0 13.7187,9.70828 13.7187,21.875 l 0,214.3125 c 0,12.038 -6.1869,21.875 -13.7187,21.875 l -228.03125,0 z M 13.71875,640.125 C 6.1869715,640.125 0,630.22734 0,618.125 l 0,-214.25 c 0,-12.03797 6.1869715,-22 13.71875,-22 l 228,0 c 7.66053,0 13.90625,9.96203 13.90625,22 l 0,214.25 c 0,12.10234 -6.24572,22 -13.90625,22 l -228,0 z m 381.53125,0 c -7.7249,0 -13.90625,-9.89766 -13.90625,-22 l 0,-214.25 c 0,-12.03797 6.18135,-22 13.90625,-22 l 227.75,0 c 7.78928,0 13.90625,9.96203 13.90625,22 l 0,214.25 c 0,12.10234 -6.11697,22 -13.90625,22 l -227.75,0 z m 381.15625,0 c -7.7249,0 -13.75,-9.89766 -13.75,-22 l 0,-214.25 c 0,-12.03797 6.0251,-22 13.75,-22 l 227.96875,0 c 7.7249,0 13.7812,9.96203 13.7812,22 l 0,214.25 c 0,12.10234 -6.0563,22 -13.7812,22 l -227.96875,0 z M 13,258.0625 C 5.7900079,257.47712 0,247.91165 0,236.1875 L 0,21.875 C 0,9.7727 6.1869715,0 13.71875,0 l 228,0 c 7.66053,0 13.90625,9.7727 13.90625,21.875 l 0,214.3125 c 0,12.03797 -6.24572,21.875 -13.90625,21.875 l -228,0 c -0.235368,0 -0.48617,0.0189 -0.71875,0 z m 381.53125,0 c -7.38557,-0.58538 -13.1875,-10.15085 -13.1875,-21.875 l 0,-214.3125 C 381.34375,9.7727 387.5251,0 395.25,0 L 623,0 c 7.78928,0 13.90625,9.7727 13.90625,21.875 l 0,214.3125 c 0,12.03797 -6.11697,21.875 -13.90625,21.875 l -227.75,0 c -0.2414,0 -0.48051,0.0189 -0.71875,0 z m 381.15625,0 c -7.37802,-0.58538 -13.03125,-10.15085 -13.03125,-21.875 l 0,-214.3125 c 0,-12.1023 6.0251,-21.875 13.75,-21.875 L 1004.375,0 c 7.7249,0 13.7812,9.7727 13.7812,21.875 l 0,214.3125 c 0,12.03797 -6.0563,21.875 -13.7812,21.875 l -227.96875,0 c -0.2414,0 -0.48075,0.0189 -0.71875,0 z" />
      <glyph
         glyph-name="rss"
         id="glyph4728"
         unicode=""
         d="M 109.84375,1013.3437 97.875,1013.2187 C 60.842541,1011.8733 31.62799,980.74336 32.78125,944.03125 33.7423,907.44728 63.260601,878.75 106.1875,878.75 l 0.0625,0 c 41.70957,0 413.50255,-7.83723 618.71875,-277.1875 185.93113,-243.91448 163.13128,-495.3747 162.875,-497.9375 -1.9221,-17.87553 3.28461,-35.50306 14.625,-49.40625 11.40446,-14.03133 27.5293,-22.73886 44.1875,-24.46875 l 8.21875,-0.53125 c 34.66187,0 63.4152,25.88665 66.875,59.84375 1.4736,12.1733 32.3494,302.92372 -189.78125,594.25 -239.1733,314.1352 -643.51111,330.0312 -722.125,330.0312 z m -21,-218.3437 -9.375,-0.125 C 42.500361,793.52953 13.34674,762.3715 14.5,725.53125 15.58919,689.52391 45.648461,660.125 85.5,660.125 l 0.0625,0 c 30.30511,0 300.34519,-5.55855 448.21875,-199.5625 C 666.85464,285.77955 651.81721,103.16896 651.625,101.375 648.10115,64.66289 674.94272,31.52856 710.4375,27.8125 l 8.40625,-0.625 c 34.53373,0 63.22458,25.88037 66.8125,60.09375 1.08919,9.41829 23.75723,233.92412 -144.875,455.09375 C 457.60513,782.76563 148.81327,795 88.84375,795 z M 72.75,569.21875 l -7.3125,-0.125 C 47.497901,568.58119 30.77019,561.19528 18.46875,548.125 6.0391704,535.05472 -0.48130998,517.88024 0.03125,499.8125 1.12044,463.22853 30.729651,434.53125 71.09375,434.53125 l 0.0625,0 c 18.836579,0 186.38461,-3.46721 277.8125,-123.40625 C 430.52986,203.87182 423.00628,93.18795 422.75,89.34375 418.77766,52.56757 445.56615,19.3129 481.125,15.4688 l 8.53125,-0.5938 c 34.5978,0 63.35115,25.88979 66.875,59.71875 0,1.60175 17.96386,162.59586 -100.4375,318.09375 C 328.21003,560.67903 114.33143,569.21875 72.75,569.21875 z M 138.15625,290.4375 C 62.751063,290.4375 1.625,229.31144 1.625,153.90625 1.625,78.50106 62.751063,17.375 138.15625,17.375 c 75.40519,0 136.53125,61.12606 136.53125,136.53125 0,75.40519 -61.12606,136.53125 -136.53125,136.53125 z" />
      <glyph
         glyph-name="home"
         id="glyph4731"
         unicode=""
         d="M 511.09375,1024 C 494.0693,1023.5948 442.74399,1010.6008 45.4375,595.625 L 36,585.6875 36,96.8125 C 36,43.43476 72.84568,0 118.125,0 l 789.71875,0 c 45.2793,0 82.125,43.43476 82.125,96.8125 l 0,485.125 -0.3125,0 -9.3125,9.8125 c -38.6469,41.00591 -73.9154,78.1106 -106.3125,111.71875 l 0,249.15625 c 0,13.3287 -3.80945,24.375 -8.65625,24.375 l -142.40625,0 c -4.71926,0 -8.6875,-10.98253 -8.6875,-24.375 l 0,-88.125 C 550.32198,1023.996 524.48691,1024 512.625,1024 c -0.48827,0 -0.98207,0.013 -1.53125,0 z m 2,-96.09375 c 47.95781,-30.54702 226.90154,-208.09255 385.3125,-375.6875 l 0,-432.125 c 0,-16.7722 -8.9223,-26.71875 -12.8125,-26.71875 l -237.125,0 0,214.125 c 0,12.75445 -6.31082,23.03125 -14.21875,23.03125 l -234.6875,0 c -7.90794,0 -14.28125,-10.34057 -14.28125,-23.03125 l 0,-214.125 -245,0 c -3.8902,0 -12.84375,9.94783 -12.84375,26.65625 l 0,435.4375 c 159.24001,165.87306 338.0173,341.50784 385.65625,372.4375 z" />
      <glyph
         glyph-name="money"
         id="glyph4734"
         unicode=""
         d="m 503.03125,1025.8125 c -23.0237,0 -34.5,-11.54 -34.5,-34.375 l 0,-52.75 C 395.24158,931.86244 334.12263,904.7343 284.625,857.40625 235.19405,810.0779 210.59375,749.36801 210.59375,675.25 210.59375,620.39524 230.09078,574.60337 269,538.4375 307.77876,502.14407 374.44747,470.24131 468.53125,442.75 l 0,-177.4375 c -28.57596,0 -62.82535,8.07327 -102.5,24.59375 -39.67465,16.39261 -64.81012,24.625 -75.78125,24.625 -22.83235,0 -42.67345,-9.55082 -58.875,-28.75 -16.07397,-19.0716 -24.21875,-41.20994 -24.21875,-66.46875 0,-47.26456 29.20799,-81.33504 87.25,-101.9375 58.23626,-20.66625 116.20766,-30.9375 174.125,-30.9375 l 0,-50.3125 c 0,-22.835 11.4763,-34.3125 34.5,-34.3125 23.34554,0 34.90625,11.4775 34.90625,34.3125 l 0,50.375 c 63.8494,0 123.54838,24.51709 178.65625,73.3125 55.04698,48.98677 82.65625,114.55633 82.65625,197.09375 0,72.45959 -23.53154,127.74049 -70.03125,165.4375 -46.68817,37.82429 -110.52866,67.74297 -191.28125,89.8125 l 0,161.6875 c 15.43612,0 36.90822,-7.05864 64.71875,-21.21875 27.81052,-14.16041 48.50227,-21.25 62.34375,-21.25 23.15418,0 41.83702,8.55814 56.125,25.84375 14.22419,17.22182 21.5,37.22783 21.5,60.0625 0,42.79956 -21.96858,73.74089 -65.53125,92.8125 -43.56558,19.19918 -89.91376,28.59375 -139.15625,28.59375 l 0,52.75 c 0,22.835 -11.56071,34.375 -34.90625,34.375 z m -34.5,-252.09375 0,-142.03125 c -18.56162,4.52877 -33.75702,12.37034 -45.8125,23.46875 -11.9917,11.0987 -17.84375,25.45796 -17.84375,43.0625 0,19.83703 5.85205,36.4188 17.84375,49.75 12.05548,13.26711 27.1871,21.85908 45.8125,25.75 z M 537.9375,424.375 c 23.09039,-6.76098 39.84266,-16.50731 50.75,-28.5625 10.84355,-12.31062 16.21875,-29.91633 16.21875,-52.6875 0,-20.66625 -6.36788,-38.77778 -19.125,-54.46875 C 573.02413,272.96499 557.0094,265.25 537.9375,265.25 l 0,159.125 z" />
      <glyph
         glyph-name="shopping-cart"
         id="glyph4737"
         unicode=""
         d="M 67.1875,997.9375 C 30.154215,997.9375 0,967.81263 0,930.84375 c 0,-36.96888 30.154215,-67.125 67.1875,-67.125 l 123.4375,0 15.21875,-76.90625 c -0.19322,-2.70504 -0.25,-5.41805 -0.25,-8.1875 l 0,-382.5 c 0,-18.42003 4.29113,-36.57654 12.40625,-53 l -40.875,-95.96875 c -8.82358,-20.48102 -6.70393,-44.09978 5.46875,-62.90625 3.0475,-4.77496 6.71338,-9.08957 10.84375,-12.875 -3.68715,-11.24761 -5.625,-23.16244 -5.625,-35.375 0,-62.85998 51.50359,-114 114.75,-114 63.1176,0 114.53125,51.14002 114.53125,114 0,5.92533 -0.44207,11.85974 -1.34375,17.65625 l 271.84375,0 C 686.69207,147.92414 686.25,141.98973 686.25,136 c 0,-62.85998 51.44109,-114 114.6875,-114 63.182,0 114.59756,51.13812 114.46875,114.0625 0,12.64568 -2.08734,24.94408 -6.03125,36.53125 12.61343,12.16917 20.52808,29.15617 20.59375,47.90625 0,37.03328 -30.15231,67.1875 -67.25,67.1875 l -462.5,0 430.625,63.03125 c 63.89047,0 116.16996,50.6305 118.875,113.8125 l 72.78125,304.5625 1.0938,9.40625 c 0,65.56502 -53.39997,118.96875 -119.0938,118.96875 l -580.09375,0 c -1.22371,0 -2.43254,-0.0625 -3.65625,-0.0625 l -9.21875,46.5625 c -6.31176,31.23677 -33.87108,53.96875 -65.6875,53.96875 l -178.65625,0 z m 257.09375,-180.78125 580.09375,0 c 19.90137,0 36.40967,-15.14513 38.40625,-34.53125 L 870.3125,479.40625 869.21875,470 c 0,-21.25389 -17.32651,-38.51982 -44.3125,-38.90625 l -500.625,-73.28125 c -2.57623,0 -5.20883,0.26791 -7.65625,0.71875 l -13.21875,2.25 -8.875,11.0625 c -3.92875,4.89483 -8.5625,13.13525 -8.5625,24.40625 l 0.25,387.15625 0.96875,6.6875 -2.375,11.84375 22.34375,11.15625 c 5.47449,2.70504 11.19967,4.0625 17.125,4.0625 z" />
      <glyph
         glyph-name="cog"
         id="glyph4739"
         unicode=""
         d="M 1015.0961,537.38869 H 910.34813 c -7.8227,54.24958 -26.64811,104.87372 -54.31376,149.71061 l 76.82785,77.08113 c 3.37076,3.43436 1.64786,10.81188 -3.81597,16.34502 l -98.38514,98.83179 c -5.66032,5.66033 -13.03779,7.37751 -16.47219,3.87955 l -74.4111,-74.79185 c -40.44916,27.15659 -86.1134,46.87207 -135.27273,57.42954 v 101.43935 c 0,7.88602 -3.94315,14.37315 -8.8403,14.37315 H 449.00493 c -4.96074,0 -8.9675,-6.48713 -8.9675,-14.37315 V 865.87448 C 376.88627,852.39144 319.32895,823.58156 271.24791,783.38741 l -75.04422,75.49115 c -5.72393,5.59674 -13.03785,7.25032 -16.40861,3.81596 L 76.064699,758.64759 c -3.497958,-3.56156 -1.792336,-10.87548 3.879555,-16.53552 L 169.3012,652.31109 c -17.29899,-35.615 -29.38285,-74.21946 -35.23398,-114.9224 H 8.9674912 C 4.0703544,537.38869 0,530.83825 0,523.01555 V 383.29002 C 0,375.4037 4.0067483,368.98019 8.9674912,368.98019 H 145.57869 c 11.70226,-39.62177 29.12845,-76.63595 51.83339,-110.02497 l -88.27576,-88.6562 c -3.43437,-3.43436 -1.58998,-10.74827 3.87955,-16.34472 l 98.38514,-98.83208 c 5.46955,-5.66005 12.91066,-7.25002 16.34502,-3.81566 l 91.58292,91.89947 c 36.76036,-22.38666 77.33668,-39.17656 120.58129,-48.46176 V -2.1162 c 0,-7.8224 3.94315,-14.246 8.96749,-14.246 H 595.5376 c 4.89714,0 8.8403,6.4236 8.8403,14.246 v 96.98766 c 48.26893,10.30279 93.29716,29.57307 133.1739,56.03007 l 80.13506,-80.51549 c 5.53313,-5.53313 12.84706,-7.18671 16.40573,-3.75235 l 103.6668,104.11052 c 3.49795,3.43436 1.7923,10.87519 -3.75233,16.40832 l -81.02551,81.34228 c 19.71576,30.84536 35.17041,64.48877 45.66425,100.35817 h 116.3867 c 4.9607,0 8.9675,6.42353 8.9675,14.30984 v 139.72553 c 0,7.9499 -3.9432,14.50034 -8.9039,14.50034 z M 522.27126,686.7177 c 113.20378,0 205.35911,-92.59906 205.35911,-206.37667 0,-113.77733 -92.15533,-206.31308 -205.35911,-206.31308 -113.39457,0 -205.54988,92.53575 -205.54988,206.31308 0,113.77761 92.15531,206.37667 205.54988,206.37667 z" />
      <glyph
         glyph-name="filter"
         id="glyph4742"
         unicode=""
         d="m 54.46875,1024 c -54.74395026,0 -70.957767,-34.51818 -36.0625,-76.96875 l 343.5,-415.21875 C 397.05763,489.61804 425.625,409.96576 425.625,355.09375 l 0,-313.78125 c 0,-55.0641 141.0625,-55.0641 141.0625,0 l 0,313.78125 c 0,54.80798 28.82043,134.52429 63.84375,176.71875 l 343.25,415.21875 C 1008.8046,989.48182 992.59381,1024 937.59375,1024 l -883.125,0 z" />
      <glyph
         glyph-name="phone"
         id="glyph4745"
         unicode=""
         d="m 268.34375,1024 c -31.60913,0 -60.28768,-12.9405 -80.9375,-33.78125 -20.64981,-20.777 -33.53372,-49.75829 -33.40625,-81.625 l 0,-793.1875 C 154,83.60356 166.75644,54.68447 187.40625,33.84375 208.05607,12.9394 236.73462,0 268.34375,0 l 481.4375,0 c 31.4208,0 60.0989,12.9393 80.8125,33.84375 20.6498,20.84072 33.53125,49.75981 33.53125,81.5625 l 0,793.1875 c 0,31.86671 -12.88145,60.848 -33.53125,81.625 C 809.94395,1011.0595 781.26585,1024 749.78125,1024 l -481.4375,0 z M 219,964.84375 l -11.71875,-13 c 2.49142,3.5691 5.22325,6.97108 8.21875,10.09375 1.01395,1.08348 2.3412,1.8865 3.5,2.90625 z m 62.34375,-35.375 455.3125,0 c 7.6481,0 14.9564,-2.92883 20.4375,-8.21875 5.4174,-5.2259 8.5,-12.16936 8.5,-19.5625 l 0,-712.15625 c 0,-15.3596 -13.0678,-27.78125 -28.9375,-27.78125 l -455.3125,0 c -15.9306,0 -28.875,12.42165 -28.875,27.78125 l 0,712.09375 c 0,15.29616 13.0081,27.84375 28.875,27.84375 z m 230.3125,-799.3125 c 17.9092,0 32.3125,-14.46851 32.3125,-32.25 0,-17.7815 -14.4033,-32.3125 -32.3125,-32.3125 -17.7818,0 -32.25,14.531 -32.25,32.3125 0,17.84523 14.4682,32.25 32.25,32.25 z m -258.9375,-88.46875 19.75,-1.65625 -4.125,0 c -5.3507,0 -10.65374,0.63655 -15.625,1.65625 z" />
      <glyph
         glyph-name="cloud"
         id="glyph4748"
         unicode=""
         d="m 560.5,934.8125 c -115.79486,0 -218.56,-77.34666 -256.8125,-188.34375 -20.81195,6.09447 -42.21086,9.125 -64.125,9.125 C 107.42929,755.59375 0.125,643.88016 0.125,506.625 0.125,455.53522 14.926555,406.38558 43,364.4375 85.33709,294.48081 153.26745,257.59375 239.5625,257.59375 l 587.46875,0 c 3.24174,0 6.16451,0.0821 9.40625,0.40625 l 0.375,0 0.96875,0 c 6.48347,0.32417 12.90553,1.02748 19,2 0.1945,0.0648 0.52658,0.0625 0.65625,0.0625 2.78789,0.51868 5.59178,1.10632 8.25,1.625 1.10219,0.25934 2.39781,0.52425 3.5,0.71875 0.0648,0 0.5,0.125 0.5,0.125 l 1.5625,0.3125 c 87.91592,20.87679 150.805,101.15287 152.75,194.96875 0,1.55603 0.125,3.10489 0.125,4.53125 0,110.99709 -85.39677,201.70277 -191.53125,204.75 C 824.61908,816.01916 705.60016,934.8125 560.5,934.8125 z m -1.5625,-73.34375 c 110.86742,0 201.25,-95.22795 201.25,-212.125 0,-4.73294 -0.20474,-9.59303 -0.59375,-15.6875 -0.71318,-9.46587 3.05801,-18.80244 10.125,-25.15625 7.19666,-6.35381 16.72396,-9.21695 26.125,-7.53125 6.93732,1.16703 14.00719,1.75 20.75,1.75 70.79954,0 128.375,-61.02212 128.375,-135.90625 l 0,-2.25 0,-0.65625 C 943.67206,401.34072 902.55368,348.1848 844.65625,334.375 L 843.5,334.09375 c -0.84285,-0.1945 -1.50323,-0.37033 -2.28125,-0.5 -1.62087,-0.38901 -3.24479,-0.70941 -5.125,-0.96875 0,-0.0648 -0.30783,-0.0625 -0.4375,-0.0625 -3.89008,-0.58351 -7.97791,-1.118 -12.0625,-1.3125 l -0.96875,0 c -2.00988,-0.12967 -4.08387,-0.25 -6.09375,-0.25 l -567.875,0 c -62.56553,0 -107.39477,24.24283 -137.21875,73.90625 -0.32417,0.38901 -0.58441,0.98599 -0.84375,1.375 -20.552615,30.47233 -31.25,66.06144 -31.25,103.40625 0,98.35431 76.0153,178.46875 169.3125,178.46875 24.18336,0 47.58119,-5.30927 69.625,-15.8125 8.62302,-4.08459 18.72773,-3.99784 27.15625,0.28125 8.55819,4.14942 14.71354,12.16146 16.59375,21.5625 19.7746,96.92795 102.70136,167.28125 196.90625,167.28125 z M 910.21875,166 l -745.9375,-0.28125 -0.0625,0 c -22.69216,-0.0648 -40.90625,-18.34376 -40.90625,-40.90625 0.0648,-22.62733 18.27892,-41.03358 40.90625,-40.96875 l 746.125,0.25 c 22.49766,0.06483 40.84375,18.34609 40.84375,40.84375 0,22.69216 -18.34142,40.99767 -40.96875,41.0625 z" />
      <glyph
         glyph-name="cloud-download"
         id="glyph4754"
         unicode=""
         d="m 560.1875,859.21875 c -115.75627,0 -218.47803,-77.3198 -256.71875,-188.28125 -20.80555,6.09259 -42.2176,9.15625 -64.125,9.15625 C 107.31602,680.09375 0,568.39864 0,431.1875 0,380.11433 14.84377,330.99708 42.84375,289.0625 c 42.32112,-69.93427 110.23151,-106.75 196.5,-106.75 l 587.28125,0 c 3.30556,0 6.23032,-0.0152 9.40625,0.25 l 0.65625,0 0.96875,0 c 6.4815,0.38889 12.9074,1.05903 19,2.03125 0,0.0589 0.625,0.0625 0.625,0.0625 2.7988,0.51852 5.6551,1.07754 8.3125,1.53125 1.0901,0.26515 2.3275,0.522 3.5,0.78125 l 0.65625,0.125 1.5625,0.40625 C 959.1984,208.37007 1022.0556,288.58918 1024,382.375 l 0,4.53125 c 0,110.83181 -85.49488,201.51389 -191.59375,204.625 l -0.1875,0.0312 C 824.24653,740.50483 705.24005,859.21875 560.1875,859.21875 z m -6.75,-124.6875 c 24.17591,0.11784 43.96412,-19.62762 44.09375,-44.0625 l 0,-248.65625 89.875,80.375 c 18.08037,16.2034 45.83218,14.59461 61.90625,-3.8125 7.06481,-7.97192 11.02662,-18.33479 11.15625,-29.09375 0,-12.76851 -5.57292,-24.82177 -14.90625,-33.3125 l -0.125,0 L 605.5,316.875 c -4.01851,-5.83333 -27.37154,-26.71875 -52.84375,-26.71875 -25.47221,0 -41.84954,16.15625 -49.5625,24.90625 L 357.4375,479.40625 c -7.06481,8.10185 -11,18.49074 -11,29.25 0,12.63859 5.19097,24.82206 14.71875,33.3125 8.87962,7.84259 20.01853,11.77778 31.75,11 11.66667,-0.64814 22.41204,-5.93287 30.125,-14.8125 L 509.75,439.5625 l 0,250.5 c 0,24.30525 19.51158,44.33912 43.6875,44.46875 z" />
      <glyph
         glyph-name="envelope"
         id="glyph4756"
         unicode=""
         d="M 71.1875,931.53125 C 31.964257,931.53125 0,892.55531 0,844.75 L 0,170.65625 C 0,122.85094 31.964257,84 71.1875,84 l 881.6875,0 c 39.0961,0 71.125,38.85094 71.125,86.65625 l 0,674.03125 c 0,47.80531 -32.0289,86.84375 -71.125,86.84375 l -881.6875,0 z M 119.84375,852 894,852 534,492 c -14.36723,-14.36691 -39.72653,-14.36691 -54.09375,0 l -360.0625,360 z m 824.75,-57.625 0,-478.15625 L 705.4375,555.25 944.59375,794.375 z m -865.125,-10.15625 230.875,-230.875 -230.875,-230.9375 0,461.8125 z m 571.875,-283.0625 293.25,-293.125 0,-37.375 c 0,-2.98783 -0.6175,-5.34394 -1.0625,-7.1875 l -863,0 c -0.635709,1.77999 -1.0625,4.19967 -1.0625,7.1875 l 0,43.53125 L 364.4375,499.25 425.875,437.84375 c 21.55078,-21.55048 50.38955,-33.4375 81.03125,-33.4375 30.70223,0 59.57412,11.88702 81.125,33.4375 l 63.3125,63.3125 z" />
      <glyph
         glyph-name="envelopes"
         id="glyph4760"
         unicode=""
         d="m 223.5625,950.625 c -32.95765,0 -59.8125,-32.75317 -59.8125,-72.90625 l 0,-566.25 c 0,-40.15308 26.85485,-72.8125 59.8125,-72.8125 l 740.625,0 c 32.89341,0 59.8125,32.65942 59.8125,72.8125 l 0,566.25 c -0.064,40.15308 -26.98334,72.90625 -59.8125,72.90625 l -740.625,0 z m 54.3125,-80.3125 623.34375,0 L 612.25,581.34375 c -12.07822,-12.07792 -33.39228,-12.07792 -45.40625,0 L 277.875,870.3125 z m 665.75,-48.4375 0,-374.5625 L 756.28125,634.53125 943.625,821.875 z M 244.25,813.09375 424.40625,632.9375 244.25,452.75 l 0,360.34375 z m -194.71875,-40.75 C 22.291398,772.34375 0,749.98811 0,722.8125 L 0,125.53125 C 0,98.22715 22.291398,76 49.53125,76 l 800.8125,0 c 27.23985,0 49.53125,22.2914 49.53125,49.53125 l 0,63.03125 -80.3125,0 0,-32.3125 -739.25,0 0,535.78125 32.3125,0 0,80.3125 -63.09375,0 z M 710.9375,589.125 943.625,356.5625 l 0,-37.59375 -699.375,0 0,42.90625 225.5625,225.65625 51.59375,-51.59375 c 18.11732,-18.11732 42.33235,-28.15625 68.15625,-28.15625 25.82682,0 50.00593,9.97468 68.1875,28.15625 l 53.1875,53.1875 z" />
      <glyph
         glyph-name="volumes"
         id="glyph4763"
         unicode=""
         d="m 512.03125,903.4375 c -263.36969,0 -476.84375,-79.67567 -476.84375,-178.125 l 0,-81.75 c 3.610454,-97.3533 186.5246,-179.96875 476.84375,-179.96875 299.28081,0 474.43097,85.32403 476.6875,184.03125 l 0,77.6875 c 0,98.5138 -213.44676,178.18947 -476.6875,178.125 z M 45.625,527.3125 c -5.412516,0.0938 -10.947104,-1.02583 -16.1875,-3.4375 -18.696991,-8.6393 -26.9537718,-30.67801 -18.25,-49.375 1.031558,-2.38548 3.434295,-7.02348 7.625,-13.40625 19.341715,-36.55584 113.45366,-163.30856 490.875,-163.4375 l 0.71875,0 5.5,0 5.40625,0 0.78125,0 c 377.48581,0.12894 471.59578,126.88166 490.93745,163.4375 4.1263,6.44724 6.5955,11.02077 7.5626,13.40625 8.6392,18.69699 0.3239,40.80017 -18.4376,49.375 -18.63247,8.57483 -40.76887,0.47824 -49.3437,-18.21875 -0.58025,-1.41839 -71.11922,-132.17733 -437,-133.53125 C 149.86725,373.47892 79.425974,504.17339 78.78125,505.65625 72.618093,519.09471 59.456986,527.07279 45.625,527.3125 z M 36.09375,349.25 c -4.82334,-0.14305 -9.670488,-1.24741 -14.3125,-3.375 -18.7614637,-8.6393 -26.9498271,-30.67801 -18.375,-49.375 0.9670858,-2.38548 3.340545,-7.02348 7.53125,-13.40625 19.341715,-36.55584 113.48097,-163.24211 491.03125,-163.5 l 0.71875,0 5.40625,0 5.34375,0 0.84375,0 c 377.42134,0.19342 471.62703,126.94416 490.96875,163.5 4.0618,6.38277 6.4997,11.08524 7.5312,13.40625 8.5749,18.69699 0.449,40.7357 -18.31245,49.375 -18.76146,8.51035 -40.73767,0.38449 -49.3125,-18.3125 -0.58025,-1.35392 -71.18172,-132.08161 -437.0625,-133.5 -365.88078,1.35392 -436.482249,132.14608 -437.0625,133.5 -6.382766,14.02274 -20.467479,22.11664 -34.9375,21.6875 z" />
      <glyph
         glyph-name="hammer"
         id="glyph4765"
         unicode=""
         d="m 101.73152,11.6378 c -27.274332,0 -52.909582,10.5557 -72.119632,29.6343 -39.73136,39.92749 -39.4690996,104.96539 0.71524,145.1551 l 466.083542,465.88625 -71.66069,71.72536 8.06429,20.97995 c 15.34181,40.45196 -5.44175,96.11431 -14.81731,114.20978 l -12.06364,23.14355 79.39715,75.3966 331.02315,-336.2694 6.4252,6.35935 c 12.78484,13.04709 28.71672,20.52101 43.27178,20.52101 h 14.16167 L 894.83291,636.90637 1012.4505,519.2873 c 18.2266,-18.42299 14.6206,-48.71264 -8.9792,-72.184 L 847.62731,291.45811 C 834.7769,278.34575 818.97615,270.80597 804.28997,270.80597 h -14.61764 l -14.48949,11.93223 -127.1928,127.38799 -1.43047,18.61968 c 0,14.62032 7.40865,30.48634 20.52131,43.599 l 4.58943,4.58914 L 640.79,508.01071 174.57533,42.0589 C 155.10303,22.3902 129.20851,11.6378 101.73748,11.6378 z" />
      <glyph
         glyph-name="light-bulb"
         id="glyph4768"
         unicode=""
         d="m 513.65625,1024 c -12.62474,0 -22.90437,-10.1584 -23.03125,-22.6563 L 489.59375,880.625 c 0,-12.5613 10.09401,-22.96781 22.71875,-23.03125 12.5613,-0.0634 22.84187,9.96901 22.96875,22.59375 l 1,120.7812 c 0,1.4592 -0.11935,3.1034 -0.5,4.5625 -1.96667,10.4044 -11.14972,18.3419 -22.125,18.4688 z m -243,-83.28125 c -5.82864,-0.0397 -11.62211,-2.30819 -16.03125,-6.8125 -7.80323,-7.93012 -8.71345,-19.90046 -2.75,-28.71875 0.88817,-1.26882 1.859,-2.41962 2.9375,-3.625 l 86.03125,-84.6875 c 9.07205,-8.75485 23.52546,-8.69611 32.34375,0.3125 8.94517,9.07205 8.75861,23.39858 -0.25,32.34375 l -86.09375,84.625 c -4.50431,4.40914 -10.35886,6.60215 -16.1875,6.5625 z m 490.625,0 c -5.47062,-0.22393 -10.90524,-2.42893 -15.1875,-6.5625 l -86.03125,-84.625 c -8.94517,-8.94517 -9.13173,-23.2717 -0.25,-32.34375 8.81829,-9.00861 23.27358,-9.06735 32.21875,-0.3125 l 86.09375,84.6875 c 1.20538,1.20538 2.17527,2.35618 3,3.625 5.96345,8.81829 4.98885,20.78863 -2.6875,28.71875 -4.71842,4.78583 -10.95622,7.06629 -17.15625,6.8125 z M 516.0625,782.34375 c -134.11412,0 -243.3125,-109.10369 -243.3125,-243.28125 0,-52.78285 48.11359,-130.11222 97.34375,-204.71875 7.48603,-11.35593 15.96613,-24.31666 18.25,-28.25 0.12688,-3.29893 -1.08246,-10.52977 -1.84375,-14.84375 -2.98172,-16.24088 -7.34592,-40.77269 9.65625,-60.3125 8.56453,-9.7699 19.14022,-21.96875 119.25,-21.96875 98.14311,0 111.79448,11.24595 121.4375,28.375 10.53119,19.09572 8.24321,39.18984 6.59375,53.78125 -0.63441,4.63119 -1.44409,12.29764 -1,15.40625 3.04516,5.83657 13.74515,22.0221 22.5,35.28125 49.73769,74.79685 94.28125,146.30694 94.28125,197.25 0,134.17756 -109.04213,243.28125 -243.15625,243.28125 z M 516,707.875 c 93.06784,0 168.75,-75.61778 168.75,-168.8125 0,-32.73552 -57.41805,-119.20238 -81.90625,-156.125 -19.34948,-29.24627 -27.35356,-41.56538 -30.90625,-51.90625 -5.70968,-16.87529 -4.30101,-33.19058 -2.96875,-45.625 -12.68819,-1.0785 -31.16691,-1.9375 -53.625,-1.9375 -22.71185,0 -41.27398,0.79556 -54.40625,1.9375 2.22043,13.70324 3.7238,30.6569 -2.9375,47.46875 -3.36237,8.31076 -9.95227,18.32901 -25.8125,42.5 -23.28282,35.20971 -85,128.73155 -85,163.6875 0,93.19472 75.68122,168.8125 168.8125,168.8125 z M 427.65625,180.03125 C 411.2058,180.12193 396.64469,168.23056 394,151.5 c -2.98172,-18.65163 9.56806,-35.98703 28.15625,-38.96875 L 599.46875,84.375 c 2.34731,-0.44409 4.65363,-0.4375 6.9375,-0.4375 15.73335,0.76129 29.36861,12.41631 31.90625,28.59375 2.98172,18.46131 -9.60025,35.92453 -28.125,38.90625 l -177.375,28.15625 c -1.73075,0.27359 -3.45448,0.42812 -5.15625,0.4375 z m 28.75,-133.34375 c -12.49786,0.06344 -22.87312,-10.03151 -23,-22.65625 0,-12.49785 10.00026,-22.84095 22.625,-23.03125 l 120.6875,-1 c 1.58602,0 3.2293,0.1194 4.625,0.5 10.46775,2.157 18.40531,11.18 18.46875,22.2188 0.0634,12.62469 -10.09589,22.84182 -22.59375,22.9687 l -120.8125,1 z" />
      <glyph
         glyph-name="map-marker"
         id="glyph4771"
         unicode=""
         d="M 505.65625,1024 C 320.66556,1024 170,874.7441 170,691.375 c 0,-105.79236 87.16461,-249.46817 139.25,-325.8125 34.18306,-50.00975 71.11184,-97.40701 104.0625,-133.40625 52.21511,-57.07988 75.28701,-65 92.28125,-65 17.0591,0 40.03016,7.92012 92.375,65 32.95066,35.99924 69.91069,83.3965 104.09375,133.40625 51.95566,76.34433 139.28125,220.02014 139.28125,325.8125 0,183.30424 -150.56709,332.625 -335.6875,332.625 z m -0.0625,-71.28125 c 145.35909,0 263.62264,-117.21943 263.6875,-261.28125 0,-60.32305 -42.9335,-159.55322 -117.65625,-272.15625 C 588.51282,324.45082 529.8527,260.80569 505.59375,242.125 481.26994,260.80569 422.63634,324.45082 359.71875,419.28125 284.73655,531.88428 241.875,631.11445 241.875,691.4375 c 0,144.06182 118.35966,261.28125 263.71875,261.28125 z M 504.25,872.75 c -84.39927,0 -152.8125,-67.82177 -152.8125,-151.46875 0,-83.64698 68.41323,-151.46875 152.8125,-151.46875 84.39927,0 152.8125,67.82177 152.8125,151.46875 0,83.64698 -68.41323,151.46875 -152.8125,151.46875 z M 375.625,78.6875 c -21.859,0 -39.5625,-17.58796 -39.5625,-39.1875 0,-21.7293 17.76837,-39.2476 39.5625,-39.3125 L 634.6875,0 c 21.79413,0 39.5625,17.5231 39.5625,39.1875 0,21.66441 -17.5785,39.21875 -39.4375,39.21875 L 375.75,78.6875 l -0.125,0 z" />
      <glyph
         glyph-name="lock"
         id="glyph4774"
         unicode=""
         d="M 511.5,1024 C 366.72228,1024 285.71875,934.3201 285.71875,794.15625 l 0,-35.71875 -163.59375,0 C 80.180707,758.4375 46,718.84288 46,670.1875 L 46,88.21875 C 46,39.63328 80.180707,0 122.125,0 L 905.5,0 c 42.0142,0 76.21875,39.63328 76.21875,88.21875 l 0,581.96875 c 0,48.58547 -34.27446,88.25 -76.21875,88.25 l -168.25,0 0,35.71875 C 737.25,934.3201 656.27772,1024 511.5,1024 z m 0,-105.96875 c 92.48717,0 113.875,-61.37362 113.875,-127.15625 l 0,-32.4375 -227.8125,0 0,32.4375 c 0,65.71273 21.45033,127.15625 113.9375,127.15625 z m -356.9375,-243.5 718.5,0 c 8.17914,0 17.34375,-12.21904 17.34375,-28.4375 l 0,-533.8125 c 0,-16.21846 -9.16461,-28.3125 -17.34375,-28.3125 l -718.5,0 c -8.03932,0 -17.1875,12.09404 -17.1875,28.3125 l 0,533.8125 c 0,16.21846 9.14818,28.4375 17.1875,28.4375 z M 511.71875,580.9375 C 449.29166,580.9375 398.75,530.247 398.75,467.75 c 0,-44.39104 25.52074,-83.81835 62.78125,-102.34375 l -50.8125,-212.71875 203.84375,0 -50.84375,213.40625 c 36.42163,18.87493 61.1875,57.82446 61.1875,101.65625 0,62.497 -50.55069,113.1875 -113.1875,113.1875 z" />
      <glyph
         glyph-name="unlock"
         id="glyph4777"
         unicode=""
         d="M 547.84375,1024 C 509.81663,1024.4657 469.25157,1012.7666 427.625,987.875 315.70773,920.89421 291.49235,815.5693 350.125,707.5 l -199.09375,0 C 111.89934,707.5 80,670.64574 80,625.1875 L 80,82.3125 C 80,36.85426 111.89934,0 151.03125,0 L 881.9375,0 c 39.06669,0 70.96875,36.85426 70.96875,82.3125 l 0,542.875 C 952.84103,670.58052 920.94169,707.5 881.875,707.5 l -410.5,0 -23.46875,39.125 c -31.43597,52.63242 -43.61829,112.05947 30.40625,156.34375 74.02454,44.28428 120.69175,5.28595 152.0625,-47.28125 l 25.25,-42 89.5,53.46875 -26.8125,44.6875 C 675.31937,983.74966 615.63122,1023.1698 547.84375,1024 z m -370,-392.03125 213.71875,0 1.6875,-2.78125 4.90625,2.78125 456.78125,0 c 7.5655,0 16.25,-11.38936 16.25,-26.78125 l 0,-503 0.0625,0 c 0,-15.39189 -8.6845,-26.78125 -16.25,-26.78125 l -677.15625,0 c -7.69594,0 -16.375,11.38936 -16.375,26.78125 l 0,503 c 0,15.39189 8.67906,26.78125 16.375,26.78125 z m 340.5,-90.125 c -58.43699,0 -105.53125,-47.28992 -105.53125,-105.53125 0,-40.76241 23.14817,-77.26836 57.0625,-94.8125 l -47.46875,-199.125 190.125,0 L 565.25,340.78125 c 34.63174,17.34848 58.5,54.18186 58.5,95.53125 0,58.24133 -47.23014,105.53125 -105.40625,105.53125 z" />
      <glyph
         glyph-name="key"
         id="glyph4780"
         unicode=""
         d="m 701.375,1024 c -81.65264,0.01 -163.3543,-31.13149 -225.65625,-93.4375 l 0.5,0 C 362.03092,816.37632 352.53519,637.19547 447.65625,512.09375 L 261.09375,324.96875 168.25,418.3125 c -20.6261,20.76753 -48.04344,26.85443 -61.15625,13.8125 -13.112823,-13.04161 -7.01559,-40.51371 13.46875,-61.28125 l 93.125,-93.5 -36.4375,-36.65625 -71.09375,71.375 c -16.373293,16.51473 -39.38788,20.29123 -51.4375,8.3125 -11.90785,-11.83665 -8.37329,-35.01652 8,-51.53125 l 71.21875,-71.53125 -39.25,-39.34375 -42.46875,42.8125 C 40.38178,212.61823 21.10373,212.625 9.125,200.5625 -2.85373,188.65497 -3.00544,169.50998 8.40625,157.53125 l 42.75,-42.8125 L 26.0625,89.625 C 13.942,77.22131 22.65147,48.5441 45.6875,25.4375 l 0,-0.09375 C 68.93616,1.9536 97.442007,-6.6914 109.5625,5.5 L 534.90625,432.40625 C 657.95075,357.27467 820.5549,372.869 926.875,479.1875 c 1.9009,1.772 3.83005,3.83624 5.53125,5.75 47.6314,45.50436 80.44795,107.31904 88.31255,177.84375 3.4731,30.97394 1.7725,61.3 -3.9688,90.21875 -9.9909,64.99606 -39.7544,127.53019 -89.9375,177.5 -62.1618,62.33821 -143.78486,93.4919 -225.4375,93.5 z m 86.40625,-112.09375 c 31.02695,0 62.0448,-11.85344 85.71875,-35.5625 47.4188,-47.27637 47.4188,-124.11312 0,-171.53125 -47.3479,-47.41813 -124.12085,-47.42003 -171.46875,0.0625 -47.4187,47.27637 -47.4187,124.1215 0,171.46875 23.67395,23.70906 54.72305,35.5625 85.75,35.5625 z" />
      <glyph
         glyph-name="tint"
         id="glyph4783"
         unicode=""
         d="m 951.6875,1008.5312 c -20.89544,0.066 -41.64227,-8.83042 -56,-26.12495 L 683.0625,726.4375 C 657.40874,695.69166 661.594,649.93501 692.46875,624.28125 723.27904,598.7564 768.84624,602.93971 794.5,633.75 l 212.6875,255.96875 c 25.6538,30.81029 21.4685,76.50445 -9.40625,102.09375 -13.5077,11.1953 -29.84174,16.6672 -46.09375,16.7187 z M 469.0625,985.25 c -46.70516,0 -84.5625,-37.85734 -84.5625,-84.5625 0,-46.70516 37.85734,-84.59375 84.5625,-84.59375 46.70516,0 84.5625,37.88859 84.5625,84.59375 0,46.70516 -37.85734,84.5625 -84.5625,84.5625 z m -242.375,-79.28125 c -46.74076,0 -84.625,-37.91549 -84.625,-84.65625 0,-46.74076 37.88424,-84.625 84.625,-84.625 46.74076,0 84.625,37.88424 84.625,84.625 0,46.74076 -37.88424,84.65625 -84.625,84.65625 z M 84.5625,705.3125 C 37.857341,705.3125 0,667.45516 0,620.75 c 0,-46.70516 37.857341,-84.59375 84.5625,-84.59375 46.70516,0 84.5625,37.88859 84.5625,84.59375 0,46.70516 -37.85734,84.5625 -84.5625,84.5625 z M 629.15625,613.96875 C 589.85557,613.96875 558,582.11318 558,542.8125 c 0,-39.30068 31.85557,-71.15625 71.15625,-71.15625 39.30068,0 71.15625,31.85557 71.15625,71.15625 0,39.30068 -31.85557,71.15625 -71.15625,71.15625 z m -114.875,-136.8125 c -27.09643,-0.12816 -53.80537,-12.60228 -71.21875,-36.0625 -29.19888,-39.5764 -5.96875,-160.875 -5.96875,-160.875 0,0 119.80112,15.4568 149,54.96875 29.19888,39.44749 20.94749,95.20542 -18.5,124.46875 -16.05173,11.88823 -34.77284,17.58769 -53.3125,17.5 z M 82.375,469.1875 C 36.678613,468.02977 0,430.60039 0,384.625 c 0,-46.70516 37.857341,-84.5625 84.5625,-84.5625 46.70516,0 84.5625,37.85734 84.5625,84.5625 0,46.70516 -37.85734,84.5625 -84.5625,84.5625 -0.729768,0 -1.462161,0.0184 -2.1875,0 z M 228.75,264.34375 c -46.70516,0 -84.5625,-37.85734 -84.5625,-84.5625 0,-46.70516 37.85734,-84.5625 84.5625,-84.5625 46.70516,0 84.5625,37.85734 84.5625,84.5625 0,46.70516 -37.85734,84.5625 -84.5625,84.5625 z m 463.78125,-4.0625 c -45.69639,-1.15773 -82.375,-38.58711 -82.375,-84.5625 0,-46.70516 37.85734,-84.5625 84.5625,-84.5625 46.70516,0 84.5625,37.85734 84.5625,84.5625 0,46.70516 -37.85734,84.5625 -84.5625,84.5625 -0.72977,0 -1.46216,0.0184 -2.1875,0 z M 458.5,189.25 c -45.73121,-1.15861 -82.46875,-38.61457 -82.46875,-84.625 0,-46.74076 37.91549,-84.625 84.65625,-84.625 46.74076,0 84.625,37.88424 84.625,84.625 0,46.74076 -37.88424,84.625 -84.625,84.625 -0.73032,0 -1.46161,0.0184 -2.1875,0 z" />
      <glyph
         glyph-name="ellipsis"
         id="glyph4787"
         unicode=""
         d="m 160,646.90625 c -71.376743,0 -129.21875,-57.33154 -129.21875,-128.0625 0,-70.73096 57.842007,-128.0625 129.21875,-128.0625 71.37674,0 129.25,57.33154 129.25,128.0625 0,70.73096 -57.87326,128.0625 -129.25,128.0625 z m 356.28125,0 c -71.32863,0 -129.3125,-57.47351 -129.3125,-128.0625 0,-70.65081 58.04541,-128.0625 129.3125,-128.0625 71.20278,0 129.34375,57.41169 129.34375,128.0625 0,70.58899 -58.14097,128.0625 -129.34375,128.0625 z m 347.65625,0 c -71.267,0 -129.3125,-57.47351 -129.3125,-128.0625 0,-70.65081 58.107,-128.0625 129.3125,-128.0625 71.2028,0 129.28125,57.41169 129.28125,128.0625 0,70.58899 -58.01695,128.0625 -129.28125,128.0625 z" />
      <glyph
         glyph-name="globe"
         id="glyph4790"
         unicode=""
         d="M 516.78125,1024 C 346.52566,1024 195.6395,941.62871 101.4375,815.375 94.39,809.76075 88.90236,801.59646 84.59375,792 31.32359,711.50842 0,615.33722 0,512.0625 0,229.59093 231.82806,0 516.78125,0 801.60087,0 1033.5312,229.59093 1033.5312,512.0625 1033.5312,794.33823 801.60087,1024 516.78125,1024 z M 516.25,942.65625 c 62.99422,0 122.66243,-13.57581 176.78125,-37.46875 -4.04749,0.1187 -7.50454,0.40625 -12.53125,0.40625 -44.26123,0 -105.17275,-7.26734 -107.71875,-7.59375 l -4.21875,-0.5 -1.96875,-3.78125 c -0.77152,-1.4362 -18.26581,-35.19415 1.4375,-54.84375 8.29082,-8.29082 14.46707,-10.07215 18.90625,-11.3125 4.11277,-1.17508 6.73571,-1.87601 12.9375,-12.125 12.07718,-19.78016 42.17141,-23.96875 65.28125,-23.96875 8.22554,0 15.13445,0.60274 19.3125,1.125 1.6914,0.20772 3.6096,0.51734 5.4375,0.84375 3.32939,0.52225 6.76715,1.09375 10.03125,1.09375 4.24333,0 10.14086,0.003 11.96875,-15.46875 1.03858,-8.48666 -2.09003,-13.55803 -4.84375,-18.0625 -2.49259,-4.04719 -5.60294,-9.15309 -3.1875,-15.09375 2.93769,-7.18103 12.14251,-10.57538 31.53125,-15.40625 16.4481,-4.11277 27.08505,-2.02348 33.15625,6.59375 2.8784,-3.98221 6.53515,-9.26973 10.84375,-15.40625 15.4718,-22.26088 7.6964,-29.371 -1.3125,-37.53125 -5.3531,-4.89616 -11.4876,-10.44805 -10.3125,-19 1.1869,-8.94364 10.10485,-16.7687 31.84375,-28.0625 23.5668,-12.14216 47.02565,-18.61089 69.15625,-21.875 -27.3532,-5.94037 -46.8772,-5.35988 -55.625,1.625 l -1.4375,3.90625 c -3.5906,8.42138 -13.71965,11.37073 -21.03125,12.9375 -9.4659,1.95846 -23.7514,1.50853 -44.25,-1.625 -28.1336,-6.46263 -47.52641,-27.95999 -57.90625,-64.84375 l -5.34375,-34.375 0,-1.0625 1.25,-12.65625 c 0.77152,-9.33533 4.5572,-18.73829 11.28125,-27.8125 7.18102,-9.92257 17.62485,-29.90625 30.09375,-29.90625 4.5697,0 10.96985,-13.6875 18.34375,-13.6875 l 18.65625,0 0,-0.8125 0,-9.71875 c 0,-3.06826 23.38385,-7.16079 26.84375,-12.1875 4.0475,-6.13652 12.21875,-8.75065 12.21875,-9.46875 0,-0.71811 3.972,-2.82259 1.5625,-7.71875 -9.2701,-23.10955 -7.0625,-24.59847 -7.0625,-26.6875 0,-4.76559 2.882,-10.52427 7.25,-21.6875 14.5579,-30.81254 25.98475,-42.21875 37.34375,-42.21875 56.7954,0 73.6595,31.66197 77.25,59.40625 3.1988,0.84867 7.56425,2.85812 12.65625,6.1875 C 875.4506,208.57709 710.79653,81.6875 516.78125,81.6875 l 0,-0.03125 c -239.97385,0 -435.1875,193.10648 -435.1875,430.46875 0,77.74974 21.28023,150.59468 57.96875,213.65625 16.25523,-3.06826 30.50582,-9.63833 36.96875,-18.125 2.87834,-3.65579 3.85145,-7.1338 2.9375,-10.59375 -8.22554,-32.11817 23.49122,-71.40081 51.5625,-106 12.79528,-15.86325 24.93239,-30.87507 28.71875,-40.40625 3.19882,-7.89883 9.94164,-10.58754 20.84375,-10 1.36498,0.0593 2.93323,0.21875 4.5,0.21875 5.87538,0 18.07026,-0.0211 29.6875,-32.53125 2.55194,-11.48934 10.64287,-17.28125 24.15625,-17.28125 3.52523,0 7.32751,0.32706 11.375,0.71875 6.33236,0.58754 13.03708,1.24666 19.5,0.125 15.60241,-2.80713 26.71474,-13.12035 34.875,-20.5625 2.87834,-2.67657 5.2665,-4.9221 7.8125,-6.75 -1.75074,-1.89318 -4.43666,-4.35126 -6.65625,-6.375 -11.88133,-10.9021 -29.68342,-27.44034 -28.3125,-52.3125 1.36499,-23.50124 19.64346,-48.09326 55.875,-75.25 -1.03858,-16.45108 -1.42359,-32.44175 -1.75,-46.28125 -0.65282,-17.62585 -1.05861,-37.55769 -2.75,-41.34375 -9.92288,-15.66769 -8.46829,-27.78837 -4.8125,-35.6875 -6.07123,-5.22226 -8.80564,-13.46947 -7.5,-23.71875 2.67063,-21.08581 21.78204,-46.53125 41.5625,-46.53125 4.17806,0 8.18517,1.18695 11.90625,3.40625 11.55492,7.05046 11.22988,18.21013 10.96875,27.21875 0,7.11575 -0.67462,13.82141 4.15625,20.21875 l 2.6875,3.71875 -1.75,4.1875 c -6.98518,16.97304 35.10743,76.19142 94.25,120.84375 l -13.1875,2.46875 0,4.125 c 0,0.32641 16.31912,33.49339 42.5625,54.1875 5.74482,4.50446 15.94112,11.21066 13.65625,18 -4.96143,14.49232 -25.5937,27.48072 -47.59375,25 -4.43918,15.73297 -18.53186,45.23712 -75.78125,40.40625 -19.19292,-1.8279 -32.24767,8.56231 -35.96875,11.5 -4.43918,8.16026 -23.25468,40.28022 -47.34375,45.4375 -0.65282,6.39764 -2.219,17.2218 -14.8125,23.75 -5.15728,2.74185 -12.20018,4.30297 -19.96875,6 -6.85461,1.50149 -19.59013,4.24509 -21.875,5.09375 1.51335,1.43621 8.53022,2.94993 13.6875,4.125 10.24928,2.21959 22.85903,4.97274 33.5,12.21875 0.91988,-0.97923 1.91283,-2.21413 2.625,-3.0625 4.30862,-5.22256 8.75027,-10.65625 15.34375,-10.65625 2.67063,0 5.19501,0.98739 7.21875,2.75 6.07123,5.02672 5.30351,11.6261 4.78125,16 -0.65282,5.48369 -1.31113,11.22468 9.65625,20.625 1.42434,1.17508 4.89623,4.61219 9.53125,9.3125 9.33534,9.26976 23.31238,23.31352 35.78125,33.5625 1.36499,1.1098 5.22134,1.36388 8.09375,1.625 5.41841,0.3917 13.65049,1.04394 16.71875,8.8125 2.22552,5.94037 2.16617,10.91848 0,15.03125 -3.26411,6.00594 -9.67191,7.51799 -14.4375,8.5625 -1.42433,0.32641 -4.03125,0.89688 -4.03125,0.25 0,0 -0.0215,0.99111 0.75,3.40625 8.22554,-0.0593 25.71733,-5.10877 39.75,-9.15625 14.5579,-4.17805 23.1351,-6.53125 28.03125,-6.53125 l 4.9375,0.40625 2.34375,2.28125 c 2.93769,2.80712 4.06185,6.47199 3.34375,10.0625 -1.5727,7.24601 -9.59725,9.91505 -19.78125,13.375 -2.49259,0.84866 -6.27828,2.16589 -9.28125,3.40625 3.32938,2.61128 4.58132,6.84207 3.40625,11.28125 -4.89616,17.36473 -70.9634,67.8125 -99.6875,67.8125 -2.16617,0 -4.16932,-0.26493 -6.0625,-0.78125 -18.01784,-4.96144 -16.97367,-26.75193 -16.125,-44.3125 0.65282,-6.72376 0.90987,-17.95335 -1.375,-19.78125 -24.21964,5.02672 -55.42773,31.65105 -66.65625,41.3125 3.45995,1.37092 8.74211,2.83048 12.59375,3.875 12.07718,3.2641 24.50518,6.65811 30.25,14.6875 6.59349,9.33534 8.26689,19.7702 4.9375,29.5625 -2.93769,8.61723 -9.57797,15.46234 -17.28125,17.8125 -20.10687,6.46292 -48.50959,1.04341 -71.75,-4.375 -15.59945,-3.72078 -30.47309,-6.92443 -38.4375,-5.03125 -17.822,4.50416 -23.12119,8.64001 -28.34375,12.6875 -7.44216,5.87538 -14.82934,10.04592 -33.5,13.375 77.68564,71.41768 181.41267,115.46875 295.65625,115.46875 z" />
      <glyph
         glyph-name="arroba"
         id="glyph4793"
         unicode=""
         d="M 512.09375,1023.9375 C 229.71004,1023.9375 0,794.22249 0,511.96875 0,229.65076 229.71004,0 512.09375,0 616.46387,0 716.5581,30.84129 801.5,89.125 c 22.5263,15.49092 28.27425,46.28641 12.71875,68.8125 -15.3618,22.5261 -46.19035,28.52831 -68.78125,12.84375 C 677.0838,123.85754 596.32567,99 512.09375,99 284.38009,99 99.125,284.32197 99.125,511.90625 c 0,227.71365 185.25509,412.875 412.96875,412.875 227.64912,0 412.84375,-185.16135 412.84375,-412.875 l 0,-40.28125 c 0,-50.28008 -41.00315,-91.1875 -91.28125,-91.1875 -50.2809,0 -91.125,40.84288 -91.125,91.1875 l 0,40.28125 c 0,127.15291 -103.41488,230.5 -230.4375,230.5 -127.02265,0 -230.5,-103.41164 -230.5,-230.5 0,-127.08837 103.47735,-230.5 230.5,-230.5 67.64372,0 127.94355,29.83622 170.15625,76.4375 34.7901,-46.08491 89.44045,-76.4375 151.46875,-76.4375 104.9481,0 190.28125,85.39829 190.28125,190.21875 l 0,40.28125 c 0,282.31828 -229.65163,512.03125 -511.90625,512.03125 z m 0,-380.5 c 72.48462,0 131.40625,-58.98501 131.40625,-131.46875 0,-72.48344 -58.92163,-131.40625 -131.40625,-131.40625 -72.48462,0 -131.46875,58.92281 -131.46875,131.40625 0,72.48374 58.98413,131.46875 131.46875,131.46875 z" />
      <glyph
         glyph-name="sd-video"
         id="glyph4796"
         unicode=""
         d="M 71.15625,941.6875 C 31.917133,941.6875 0,902.76819 0,854.9375 l 0,-674.25 C 0,132.92093 31.981249,94 71.15625,94 l 881.6875,0 C 992.01875,94 1024,132.92093 1024,180.6875 l 0,674.25 c 0.064,47.83069 -31.91875,86.75 -71.09375,86.75 l -881.75,0 z m 9.875,-80.15625 862,0 c 0.51293,-1.66702 0.875,-3.90087 0.875,-6.59375 l 0,-674.25 c 0,-2.69288 -0.36207,-4.80011 -0.875,-6.53125 l -862,0 c -0.51293,1.66702 -0.875,3.83837 -0.875,6.53125 l 0,674.25 c 0,2.69288 0.36207,4.86261 0.875,6.59375 z m 91.5,-95.21875 c -3.33404,0 -6.03125,-4.27372 -6.03125,-9.53125 l 0,-92.90625 c 0,-5.25753 2.69721,-9.5625 6.03125,-9.5625 l 98.8125,0 c 3.33404,0 6.03125,4.24085 6.03125,9.5625 l 0,92.90625 c 0,5.25753 -2.69721,9.53125 -6.03125,9.53125 l -98.8125,0 z m 571.46875,0 c -3.26993,0 -5.96875,-4.27372 -5.96875,-9.53125 l 0,-92.90625 c 0,-5.25753 2.69882,-9.5625 5.96875,-9.5625 l 98.875,0 c 3.33404,0 6.03125,4.24085 6.03125,9.5625 l 0,92.90625 c 0,5.25753 -2.69721,9.53125 -6.03125,9.53125 l -98.875,0 z M 454.09375,667.09375 C 443.58027,666.74124 436.5,657.67648 436.5,641.6875 l 0,-242.25 c 0,-24.36416 16.40199,-32.70093 36.40625,-18.53125 l 161.125,113.875 c 20.06837,14.16968 20.06837,37.3287 0,51.5625 l -161.125,113.875 c -6.87646,4.87083 -13.30544,7.05965 -18.8125,6.875 z M 172.53125,579.5 c -3.33404,0 -6.03125,-4.24085 -6.03125,-9.5625 l 0,-92.84375 c 0,-5.25753 2.69721,-9.5 6.03125,-9.5 l 98.8125,0 c 3.33404,0 6.03125,4.17835 6.03125,9.5 l 0,92.84375 c 0,5.25753 -2.69721,9.5625 -6.03125,9.5625 l -98.8125,0 z M 744,579.5 c -3.26993,0 -5.96875,-4.24085 -5.96875,-9.5625 l 0,-92.84375 c 0,-5.25753 2.69882,-9.5 5.96875,-9.5 l 98.875,0 c 3.33404,0 6.03125,4.17835 6.03125,9.5 l 0,92.84375 c 0,5.25753 -2.69721,9.5625 -6.03125,9.5625 L 744,579.5 z M 172.53125,391.75 c -3.33404,0 -6.03125,-4.30335 -6.03125,-9.625 l 0,-93.03125 c 0,-5.06518 2.69721,-9.34375 6.03125,-9.34375 l 98.8125,0 c 3.33404,0 6.03125,4.21445 6.03125,9.34375 l 0,93.03125 c 0,5.32165 -2.69721,9.625 -6.03125,9.625 l -98.8125,0 z M 744,391.75 c -3.26993,0 -5.96875,-4.30335 -5.96875,-9.625 l 0,-93.03125 c 0,-5.06518 2.69882,-9.34375 5.96875,-9.34375 l 98.875,0 c 3.33404,0 6.03125,4.21445 6.03125,9.34375 l 0,93.03125 c 0,5.32165 -2.69721,9.625 -6.03125,9.625 l -98.875,0 z" />
      <glyph
         glyph-name="videos"
         id="glyph4799"
         unicode=""
         d="m 225.03125,949.5 c -32.83367,0 -59.65625,-32.63859 -59.65625,-72.71875 l 0,-565.28125 c 0,-40.01603 26.82258,-72.65625 59.65625,-72.65625 l 739.25,0 c 32.8978,0 59.71875,32.64022 59.71875,72.65625 l 0,565.28125 C 1024,916.86141 997.17905,949.5 964.28125,949.5 l -739.25,0 z m 20.78125,-80.15625 698.03125,0 -0.25,-550.34375 -698.03125,0 0.25,550.34375 z m 77.46875,-79.1875 c -2.69339,0 -4.875,-3.45504 -4.875,-7.6875 l 0,-74.71875 c 0,-4.23246 2.18161,-7.6875 4.875,-7.6875 l 79.4375,0 c 2.69339,0 4.8125,3.45504 4.8125,7.6875 l 0,74.71875 c 0,4.23246 -2.11911,7.6875 -4.8125,7.6875 l -79.4375,0 z m 459.59375,0 c -2.62926,0 -4.8125,-3.45504 -4.8125,-7.6875 l 0,-74.71875 c 0,-4.23246 2.11911,-7.6875 4.8125,-7.6875 l 79.46875,0 c 2.69339,0 4.875,3.45504 4.875,7.6875 l 0,74.71875 c 0,4.23246 -2.18161,7.6875 -4.875,7.6875 l -79.46875,0 z M 49.4375,775.09375 C 22.247119,775.09375 0,752.7825 0,725.65625 L 0,129.4375 C 0,102.18299 22.247119,80 49.4375,80 l 799.375,0 c 27.19038,0 49.4375,22.24712 49.4375,49.4375 l 0,62.90625 -80.15625,0 0,-32.25 -737.9375,0 0,534.84375 32.25,0 0,80.15625 -62.96875,0 z m 500.25,-64.75 c -8.46052,-0.28427 -14.15625,-7.57058 -14.15625,-20.40625 l 0,-194.90625 c 0,-19.55912 13.21631,-26.28983 29.3125,-14.875 L 694.4375,571.75 c 16.09619,11.47896 16.09619,30.05555 0,41.40625 L 564.84375,704.8125 c -5.53307,3.92385 -10.72455,5.68016 -15.15625,5.53125 z m -226.40625,-70.375 c -2.69339,0 -4.875,-3.45341 -4.875,-7.75 l 0,-74.65625 c 0,-4.29659 2.18161,-7.6875 4.875,-7.6875 l 79.4375,0 c 2.69339,0 4.8125,3.45504 4.8125,7.6875 l 0,74.65625 c 0,4.29659 -2.11911,7.75 -4.8125,7.75 l -79.4375,0 z m 459.59375,0 c -2.62926,0 -4.8125,-3.45341 -4.8125,-7.75 l 0,-74.65625 c 0,-4.29659 2.11911,-7.6875 4.8125,-7.6875 l 79.46875,0 c 2.69339,0 4.875,3.45504 4.875,7.6875 l 0,74.65625 c 0,4.29659 -2.18161,7.75 -4.875,7.75 l -79.46875,0 z M 323.28125,488.875 c -2.69339,0 -4.875,-3.39091 -4.875,-7.6875 l 0,-74.84375 c 0,-4.10421 2.18161,-7.5 4.875,-7.5 l 79.4375,0 c 2.69339,0 4.8125,3.39579 4.8125,7.5 l 0,74.84375 c 0,4.29659 -2.11911,7.6875 -4.8125,7.6875 l -79.4375,0 z m 459.59375,0 c -2.62926,0 -4.8125,-3.39091 -4.8125,-7.6875 l 0,-74.84375 c 0,-4.10421 2.11911,-7.5 4.8125,-7.5 l 79.46875,0 c 2.69339,0 4.875,3.39579 4.875,7.5 l 0,74.84375 c 0,4.29659 -2.18161,7.6875 -4.875,7.6875 l -79.46875,0 z" />
      <glyph
         glyph-name="camera"
         id="glyph4802"
         unicode=""
         d="m 123.90625,909.25 c -10.2458,0 -18.625,-3.22353 -18.625,-7.21875 l 0,-32.15625 -49.9375,0 C 24.799668,869.875 0,841.39468 0,806.46875 l 0,-619.125 C 0,152.48226 24.864107,124 55.34375,124 l 913.3125,0 C 999.13589,124 1024,152.48226 1024,187.34375 l 0,619.125 c -0.064,34.92593 -24.92661,63.40625 -55.40625,63.40625 l -520.6875,0 0,32.15625 c 0,3.99522 -8.44364,7.21875 -18.625,7.21875 l -305.375,0 z m 61.875,-80.53125 181.53125,0 0,-39.375 576,0 0,-584.84375 -862.90625,0 0,584.84375 105.375,0 0,39.375 z m 16.75,-87.40625 c -4.1241,0 -7.53125,-4.19057 -7.53125,-9.28125 l 0,-89.3125 c 0,-5.15512 3.40715,-9.125 7.53125,-9.125 l 124.1875,0 c 4.05966,0 7.46875,4.03432 7.46875,9.125 l 0,89.3125 c 0,5.15512 -3.40909,9.28125 -7.46875,9.28125 l -124.1875,0 z m 453.40625,-60.375 c -115.28135,0 -209.0625,-92.9098 -209.0625,-207.03125 0,-114.25033 93.78115,-207.09375 209.0625,-207.09375 115.15248,0 208.97069,92.84342 208.90625,207.09375 0,114.18589 -93.75377,207.03125 -208.90625,207.03125 z" />
      <glyph
         glyph-name="facetime-video"
         id="glyph4806"
         unicode=""
         d="M 46.59375,886.46875 C 20.8348,886.46875 0,859.5038 0,826.3125 L 0,238.71875 C 0,205.52694 20.8348,178.5 46.59375,178.5 l 768.1875,0 c 25.759,0 46.65625,27.02694 46.65625,60.21875 l 0,103.375 96.75,-68.3125 c 11.9183,-8.45788 23.1368,-12.4375 32.8125,-12.4375 19.6716,0 33,16.52644 33,45.9375 L 1024,745.5 c 0,29.47484 -13.3284,46.03125 -33,46.03125 -9.6757,0 -20.8942,-3.97934 -32.8125,-12.4375 l -96.75,-68.3125 0,115.53125 c 0,33.1913 -20.89725,60.15625 -46.65625,60.15625 l -768.1875,0 z m 33.5,-80.15625 701.25,0 0,-95.53125 c 0,-29.92338 16.6581,-57.34873 43.25,-71.125 11.598,-6.02324 24.22055,-8.96875 36.84375,-8.96875 16.2115,0 32.411,4.91654 46.1875,14.65625 l 36.28125,25.59375 0,-289.0625 -36.28125,25.5625 c -13.7765,9.73941 -29.912,14.6875 -46.1875,14.6875 -12.6232,0 -25.24575,-2.9458 -36.84375,-8.96875 -26.5919,-13.77655 -43.25,-41.20134 -43.25,-71.125 l 0,-83.5 -701.25,0 0,547.78125 z" />
      <glyph
         glyph-name="picture"
         id="glyph4809"
         unicode=""
         d="M 69.40625,935.5625 C 30.960187,934.37499 0,896.0044 0,848.9375 L 0,174.65625 C 0,126.90731 31.92671,88 71.21875,88 l 881.625,0 C 992.20084,88 1024,126.90731 1024,174.65625 l 0,674.28125 c 0,47.81399 -31.86421,86.625 -71.15625,86.625 l -881.625,0 c -0.613938,0 -1.202245,0.0189 -1.8125,0 z m 35.0625,-64.375 815.125,0 c 17.88959,0 33.03125,-21.86399 33.03125,-47.625 l 0,-623.46875 c 0,-25.76101 -15.14166,-47.5625 -33.03125,-47.5625 l -815.125,0 c -17.889588,0 -33.09375,21.80149 -33.09375,47.5625 l 0,623.46875 c 0,25.76101 15.204162,47.625 33.09375,47.625 z M 389.65625,735.875 c -40.0595,0 -72.53125,-32.17945 -72.53125,-71.84375 0,-39.6643 32.47175,-71.8125 72.53125,-71.8125 40.0595,0 72.53125,32.1482 72.53125,71.8125 0,39.6643 -32.47175,71.84375 -72.53125,71.84375 z M 672.75,627.4375 c -149.42304,0.0423 -122.31078,-177.36733 -195.3125,-181.59375 -84.95928,-5.07414 -105.58844,93.42533 -214.8125,74.625 -111.89124,-19.2557 -125.21875,-233.875 -125.21875,-233.875 l 752.0625,-1.15625 c 0,0 26.15338,333.25675 -209.46875,341.84375 -2.46185,0.0915 -4.87821,0.15558 -7.25,0.15625 z" />
      <glyph
         glyph-name="pictures"
         id="glyph4811"
         unicode=""
         d="m 225.03125,949.5 c -32.83367,0 -59.65625,-32.63859 -59.65625,-72.71875 l 0,-565.28125 c 0,-40.01603 26.82258,-72.65625 59.65625,-72.65625 l 739.25,0 c 32.8978,0 59.71875,32.64022 59.71875,72.65625 l 0,565.28125 C 1024,916.86141 997.17905,949.5 964.28125,949.5 l -739.25,0 z m 20.78125,-80.15625 698.03125,0 -0.25,-550.34375 -698.0625,0 0.28125,550.34375 z m -196.375,-94.25 C 22.247119,775.09375 0,752.7825 0,725.65625 L 0,129.4375 C 0,102.18299 22.247119,80 49.4375,80 l 799.375,0 c 27.19038,0 49.4375,22.24712 49.4375,49.4375 l 0,62.90625 -80.15625,0 0,-32.25 -737.9375,0 0,534.84375 32.25,0 0,80.15625 -62.96875,0 z M 500.40625,754.3125 c -29.11282,0 -52.71875,-23.38926 -52.71875,-52.21875 0,-28.82949 23.60593,-52.1875 52.71875,-52.1875 29.11282,0 52.6875,23.35801 52.6875,52.1875 0,28.82949 -23.57468,52.21875 -52.6875,52.21875 z m 205.75,-78.84375 c -108.67797,0.009 -88.94423,-128.90677 -142.03125,-132 -61.75635,-3.7192 -76.76272,67.90922 -156.21875,54.25 C 326.5934,583.67447 316.9375,426.40625 316.9375,426.40625 L 863.75,426.8125 c 0,0 18.97353,242.27784 -152.3125,248.5625 -1.79056,0.0661 -3.5562,0.0936 -5.28125,0.0937 z" />
      <glyph
         glyph-name="file"
         id="glyph4817"
         unicode=""
         d="M 96,1024 C 60.79951,1024 32,995.2002 32,960 L 32,64 C 32,28.79975 60.79951,0 96,0 l 832,0 c 35.1976,0 64,28.79975 64,64 l 0,658.0625 c 0,35.19991 -20.5991,84.08049 -45.8125,108.65625 L 797.125,979.25 C 771.9727,1003.89 722.48176,1024 687.28125,1024 L 96,1024 z m 15.9375,-79.9375 575.34375,0 0,-0.0625 c 14.40021,0 43.6484,-11.90436 53.3125,-21.3125 L 890.3125,773.5 c 9.7281,-9.47184 21.625,-37.8071 21.625,-51.375 l 0,-642.0625 -800,0 0,864 z m 566.375,-60.71875 c -11.04096,-0.6579 -18.21875,-12.1313 -18.21875,-33.03125 l 0,-72.40625 c 0,-35.19991 28.79952,-64 64,-64 l 72.375,0 c 35.2005,0 43.6463,21.0102 18.75,45.90625 l -109.875,109.25 c -10.11412,10.11391 -19.47691,14.73139 -27.03125,14.28125 z M 260.53125,583.875 c -20.09628,0 -36.46875,-17.98099 -36.46875,-40.125 0,-22.01602 16.37247,-39.875 36.46875,-39.875 l 503,0 c 20.2243,0 36.46875,17.92298 36.46875,39.875 0,22.14401 -16.24445,40.125 -36.46875,40.125 l -503,0 z m 0,-151.5 c -20.09628,0 -36.46875,-17.98098 -36.46875,-40.125 0,-22.01602 16.37247,-39.875 36.46875,-39.875 l 503,0 c 20.2243,0 36.46875,17.92298 36.46875,39.875 0,22.14402 -16.24445,40.125 -36.46875,40.125 l -503,0 z m 0,-146.625 c -20.09628,0 -36.46875,-17.98098 -36.46875,-40.125 0,-22.01601 16.37247,-39.875 36.46875,-39.875 l 503,0 c 20.2243,0 36.46875,17.92299 36.46875,39.875 0,22.14402 -16.24445,40.125 -36.46875,40.125 l -503,0 z" />
      <glyph
         glyph-name="form"
         id="glyph4820"
         d="m 552.4375,1024 -89.375,-0.3125 c -8.56464,0 -16.88587,-3.6333 -22.46875,-9.4063 -6.21729,-6.0904 -9.5625,-14.1875 -9.5625,-22.62495 l 0,-72.09375 -48.09375,0 c -16.93896,0 -30.59375,-12.73641 -30.59375,-28.40625 l 0,-3.09375 -153.125,0 c -49.99214,0 -87.75,-50.26008 -87.75,-117 l 0,-654 C 111.46875,50.38601 149.22661,0 199.21875,0 l 619.875,0 c 49.9258,0 87.625,50.38601 87.625,117.0625 l 0,654 c 0,66.73992 -37.8242,117 -87.75,117 l -0.375,0 -155.875,0 0,3.09375 c 0,15.92361 -13.46735,28.40625 -30.59375,28.40625 l -48.34375,0 0.65625,72.59375 c 0,8.69125 -3.50805,16.75805 -9.28125,22.53125 -5.96353,6.0901 -13.96378,9.3125 -22.71875,9.3125 z m -44.96875,-44.28125 c 14.97227,0.11535 27.15625,-11.993 27.15625,-27.21875 0,-14.97226 -12.3696,-27.2803 -27.46875,-27.34375 C 492.0571,925.04091 479.93656,937.15085 480,952.25 c 0,15.1623 12.3696,27.46875 27.46875,27.46875 z M 200.9375,808.75 l 140.8125,0 0,-54.875 335.8125,0 0,54.875 138.75,0 c 3.6796,-3.74307 10.65625,-16.3079 10.65625,-37.6875 l 0,-654 -0.0625,0 c 0,-21.3796 -7.04005,-34.00722 -10.65625,-37.75 l -615.25,0 c -3.67962,3.67933 -10.71875,16.30696 -10.71875,37.75 l 0,654 c 0,21.44305 7.04007,34.00787 10.65625,37.6875 z M 692.65625,640.8125 344.625,640.6875 C 329.77962,640.6875 317.71875,625.52472 317.71875,607 317.90907,582.8924 336.4988,574.78125 345,574.78125 l 0,-0.0312 347.96875,0 c 14.5916,0.0634 26.84375,15.62494 26.84375,34.59375 0,8.75497 -2.8612,16.8196 -8,22.65625 -5.0753,5.64632 -11.92385,8.8125 -19.15625,8.8125 z M 344.625,510.3125 c -14.59161,0 -26.90625,-15.54032 -26.90625,-33.875 0.0634,-18.01718 12.05522,-32.15625 27.28125,-32.15625 l 347.84375,0.125 c 14.9088,0.19032 26.96875,15.97434 26.96875,34.5625 0,8.75497 -2.8612,16.81989 -8,22.65625 -5.0119,5.58288 -11.79705,8.6875 -19.15625,8.6875 l -348.03125,0 z m 0,-125.34375 c -14.59161,0 -26.90625,-15.54061 -26.90625,-33.875 0.0634,-18.01748 12.05522,-32.1875 27.28125,-32.1875 l 0,0.0312 347.84375,0.0937 c 14.9088,0.19033 26.96875,16.00559 26.96875,34.59375 0,8.75497 -2.8612,16.8199 -8,22.65625 -5.0119,5.58288 -11.79705,8.6875 -19.15625,8.6875 l -348.03125,0 z M 692.71875,249.125 596.8125,249 c -14.90882,0 -27.03125,-15.16278 -27.03125,-33.6875 0.19033,-18.84192 12.12055,-31.71875 27.15625,-31.71875 l 0.1875,0 95.90625,0.25 c 14.5916,0.0634 26.84375,15.54155 26.84375,33.8125 0,8.81842 -2.8612,16.88305 -8,22.65625 -5.0754,5.64632 -11.92385,8.8125 -19.15625,8.8125 z"
         unicode="" />
      <glyph
         glyph-name="files"
         id="glyph4823"
         unicode=""
         d="m 265.65625,1024 c -28.73217,0 -52.21875,-23.4872 -52.21875,-52.21875 l 0,-731.46875 c 0,-28.73187 23.48658,-52.21875 52.21875,-52.21875 l 679.21875,0 c 28.7322,0 52.25,23.48688 52.25,52.21875 l 0,537.21875 c 0,28.73187 -16.878,68.63778 -37.4375,88.75 l -121.625,121.25 C 817.503,1007.5796 777.1059,1024 748.4375,1024 l -482.78125,0 z m 27.65625,-79.8125 455.125,0 c 8.492,-0.20316 27.8883,-8.04725 33.3125,-13.21875 l 122.21875,-121.8125 c 5.4911,-5.68258 13.15085,-23.83404 13.40625,-31.6875 l 0,-509.625 -624.0625,0 0,676.34375 z m 447.84375,-35.03125 c -9.02346,-0.54062 -14.875,-9.9092 -14.875,-26.96875 l 0,-59.0625 c 0,-28.66803 23.48955,-52.21875 52.21875,-52.21875 l 59.0625,0 c 28.7322,0 35.6152,17.10248 15.375,37.40625 L 763.25,897.53125 c -8.24854,8.24841 -15.9198,11.9949 -22.09375,11.625 z M 79.21875,788.03125 C 52.147041,788.03125 30,765.78911 30,738.78125 L 30,49.21875 C 30,22.0832 52.147041,0 79.21875,0 L 719.5,0 c 27.07171,0 49.21875,22.147 49.21875,49.21875 l 0,62.65625 -79.8125,0 0,-32.125 -579.09375,0 0,628.46875 32.125,0 0,79.8125 -62.71875,0 z M 399.9375,664.71875 c -16.47311,0 -29.8125,-14.68095 -29.8125,-32.75 0,-17.94135 13.40324,-32.5625 29.8125,-32.5625 l 410.65625,0 c 16.537,0 29.78125,14.62115 29.78125,32.5625 0,18.06905 -13.30815,32.75 -29.78125,32.75 l -410.65625,0 z m 0,-123.65625 c -16.47311,0 -29.8125,-14.68095 -29.8125,-32.75 0,-17.94135 13.40324,-32.5625 29.8125,-32.5625 l 410.65625,0 c 16.537,0 29.78125,14.62115 29.78125,32.5625 0,18.06905 -13.30815,32.75 -29.78125,32.75 l -410.65625,0 z m 0,-119.65625 c -16.47311,0 -29.8125,-14.68095 -29.8125,-32.75 0,-17.94164 13.40324,-32.5625 29.8125,-32.5625 l 410.65625,0 c 16.537,0 29.78125,14.55701 29.78125,32.5625 0,18.06905 -13.30815,32.75 -29.78125,32.75 l -410.65625,0 z" />
      <glyph
         glyph-name="file-upload"
         id="glyph4827"
         unicode=""
         d="m 324.9375,1024 c -27.56997,0 -50,-22.5599 -50,-49.9375 l 0,-334.625 c 8.01453,0.51293 15.95099,1.21875 24.09375,1.21875 19.10663,0 37.75813,-1.92565 56.03125,-4.875 l 0,308.125 431.125,0 c 7.43748,-0.3847 24.50702,-7.23546 29.1875,-11.53125 l 116.75,-116.3125 c 4.68048,-5.06518 11.39817,-20.89441 11.71875,-27.5625 l 0,-483.25 -295,0 c 0.12823,-3.91109 0.65625,-7.68104 0.65625,-11.65625 0,-23.40242 -2.45098,-46.34866 -6.875,-68.46875 l 331.5,0 c 27.4417,0 49.875,22.55988 49.875,49.9375 l 0,513.4375 c -0.064,27.31351 -16.1601,65.51675 -35.84375,84.6875 l -116.25,115.875 C 852.22257,1008.2332 813.69174,1024 786.25,1024 l -461.3125,0 z M 764.375,896.15625 c -9.40142,0.39634 -15.625,-8.63016 -15.625,-25.78125 l 0,-56.46875 c 0,-27.44174 22.43326,-49.96875 49.875,-49.96875 l 56.5,0 c 27.44174,0 34.0506,16.41654 14.6875,35.84375 L 784.0625,885 c -7.2852,7.2852 -14.04665,10.91844 -19.6875,11.15625 z M 297.4375,589.28125 C 133.42823,589.28125 0,457.09386 0,294.6875 0,132.15291 133.42823,0 297.4375,0 461.38265,0 594.875,132.15291 594.875,294.6875 594.81088,457.09386 461.31854,589.28125 297.4375,589.28125 z m 0,-80.125 c 119.76908,0 217.28125,-96.17434 217.28125,-214.46875 0,-118.29441 -97.51217,-214.53125 -217.28125,-214.53125 -119.76908,0 -217.28125,96.23684 -217.28125,214.53125 0,118.23029 97.51217,214.46875 217.28125,214.46875 z m 0.0937,-57.8125 C 288.32419,451.09524 279.18892,448.00141 272.9375,441.75 L 154.71875,324.15625 c -10.64344,-10.70756 -13.02539,-23.3191 -7.0625,-37.9375 2.11586,-4.68055 4.94392,-8.72679 8.40625,-12.125 7.75817,-7.30905 16.35604,-10.90625 25.78125,-10.90625 9.80992,0.44882 17.93204,3.59667 24.34375,9.6875 l 57.1875,59.75 0,-168.375 c 0.44882,-6.47554 2.76666,-12.24563 7.0625,-17.375 7.24524,-6.92435 16.29245,-10.3125 27,-10.3125 11.09226,0.44882 20.13947,3.77285 27,10.3125 5.12936,4.29585 7.6875,10.00182 7.6875,17.375 l 0,168.375 56.625,-57.25 c 6.8605,-6.41171 14.80485,-9.625 23.78125,-9.625 10.3228,0.3847 19.09855,4.04572 26.34375,10.90625 11.5411,11.54108 14.30665,24.63321 8.34375,39.1875 -1.2823,3.84703 -3.6643,7.50804 -7.0625,10.90625 L 325,441.75 c -6.50588,6.50588 -17.03408,9.8754 -27.46875,9.59375 z" />
      <glyph
         glyph-name="file-download"
         id="glyph4829"
         unicode=""
         d="m 325,1023.9375 c -27.56824,0 -50.03125,-22.5616 -50.03125,-49.9375 l 0,-334.59375 c 8.01402,0.5129 15.98275,1.1875 24.125,1.1875 19.10543,0 37.75927,-1.89459 56.03125,-4.84375 l 0,308.125 431.09375,0 c 7.43701,-0.38467 24.47606,-7.26698 29.15625,-11.5625 l 116.75,-116.28125 c 4.68019,-5.06486 11.42944,-20.92608 11.75,-27.59375 l 0,-483.1875 -295,0 c 0.12822,-3.91084 0.65625,-7.71254 0.65625,-11.6875 0,-23.40095 -2.45126,-46.35004 -6.875,-68.46875 l 331.46875,0 c 27.44,0 49.875,22.56159 49.875,49.9375 l 0,513.40625 c -0.1282,27.3118 -16.2254,65.5492 -35.84375,84.71875 L 871.9375,989 c -19.68244,19.1695 -58.21623,34.9375 -85.65625,34.9375 l -461.28125,0 z M 764.3125,896.09375 c -9.40083,0.39632 -15.625,-8.63124 -15.625,-25.78125 l 0,-56.46875 c 0,-27.44002 22.46623,-49.9375 49.90625,-49.9375 l 56.46875,0 c 27.44002,0 34.1135,16.41775 14.6875,35.84375 l -85.71875,85.1875 c -7.28475,7.28475 -14.07825,10.91846 -19.71875,11.15625 z M 297.40625,589.25 C 133.40725,589.25 0,457.05244 0,294.65625 0,132.13183 133.40725,0 297.40625,0 c 163.93489,0 297.4375,132.13183 297.4375,294.65625 0,162.39619 -133.50261,294.59375 -297.4375,294.59375 z m 0,-80.125 c 119.76158,0 217.28125,-96.18175 217.28125,-214.46875 0,-118.287 -97.51967,-214.53125 -217.28125,-214.53125 -119.76158,0 -217.28125,96.24425 -217.28125,214.53125 0,118.22289 97.51967,214.46875 217.28125,214.46875 z m -0.75,-56.4375 c -11.09156,-0.44879 -20.1399,-3.77297 -27,-10.3125 -5.12904,-4.23146 -7.6875,-10.00361 -7.6875,-17.3125 l 0,-168.40625 -56.625,57.25 c -6.8601,6.47542 -14.80541,9.59375 -23.78125,9.59375 -10.3222,-0.38468 -19.09898,-4.0149 -26.34375,-10.875 -11.53745,-11.54006 -14.30627,-24.63383 -8.34375,-39.1875 1.28226,-3.84678 3.6004,-7.50826 7.0625,-10.90625 l 115.15625,-115 c 12.2456,-12.24531 38.69573,-13.33523 52.03125,0 l 118.25,117.5625 c 10.6428,10.7066 12.99375,23.41537 7.03125,37.96875 -2.1157,4.74436 -4.94575,8.79112 -8.34375,12.125 -7.7577,7.30889 -16.3254,10.875 -25.75,10.875 -9.8093,-0.38468 -17.9637,-3.56551 -24.375,-9.65625 l -57.25,-59.75 0,168.40625 c -0.44879,6.41131 -2.76692,12.18345 -7.0625,17.3125 -7.24478,6.92421 -16.26186,10.3125 -26.96875,10.3125 z" />
      <glyph
         glyph-name="folder-open"
         id="glyph4832"
         unicode=""
         d="m 374.09375,1024 c -19.76966,-0.1614 -38.43265,-12.5313 -45.46875,-32.09375 l -68.90625,-191.46875 83.9375,0 48.96875,136 537,-193.1875 -122.5,-340.5625 0,-233.3125 207.1562,575.71875 c 9.0972,25.14358 -4.0432,53.1209 -29.24995,62.28125 L 390.75,1021.1562 c -1.89524,0.7581 -3.8561,1.3404 -5.625,1.6563 -3.67204,0.839 -7.3702,1.2174 -11.03125,1.1875 z M 46.3125,770.53125 C 24.13783,770.53125 6,754.05834 6,733.96875 L 6,70.0625 C 6,30.07287 33.11198,0 66.46875,0 l 650.5,0 c 33.3568,0 60.40625,30.13607 60.40625,70.0625 l 0,545.5625 c 0,39.8633 -27.04945,58.1875 -60.40625,58.1875 l -310.3125,0 0,60.15625 c 0,20.46864 -17.63174,36.5625 -40.375,36.5625 l -319.96875,0 z m 38.71875,-78.96875 242.59375,0 0,-17.75 0,-78.96875 78.96875,0 291.75,0 0,-515.875 -613.3125,0 0,612.59375 z" />
      <glyph
         glyph-name="folder-close"
         id="glyph4835"
         unicode=""
         d="M 53.46875,1022.9687 C 24.07793,1022.9687 0,1001.1119 0,974.46875 L 0,93.03125 C 0,39.93666 35.975,0 80.25,0 L 943.875,0 C 988.0891,0 1024,39.93666 1024,93.03125 l 0,724.34375 c 0,52.96679 -35.9109,77.25 -80.125,77.25 l -411.96875,0 0,79.84375 c 0,27.15425 -23.43912,48.49995 -53.59375,48.49995 l -424.84375,0 z M 79.875,943.125 l 372.15625,0 0.25,0 0,-48.5 0,-79.875 79.875,0 411.96875,0 0,-721.71875 c 0,-6.96434 -1.9097,-11.23975 -3.1875,-13.15625 l -857.8125,0 c -1.27786,1.8529 -3.25,6.12801 -3.25,13.15625 l 0,850.09375 z" />
      </font>
</defs>
</svg>
